Торрент файл
скачать торрент магнет ссылка Добавлен: 07 май 2017, 11:33
Размер: 3.19 ГБ
Сидеров: 71
Личеров: 29
Статус: (salma3)
Автор

СообщениеДобавлено: 07 май 2017, 11:33 

Не в сети
Супермодератор
Аватара пользователя
Дата регистрации:
15 фев 2012, 16:44
Возраст: 29
Спасибо: 7328 / 2147
Сообщения: 73697
Год выхода: 1993
Жанр: мелодрама, комедия
Режиссер: Уоррен Лайт

В ролях: Мэттью Бродерик, Аннабелла Шиорра, Кевин Андерсон, Джинн Трипплхорн, Майкл Мэнтелл, Кристин Барански, Льюис Блэк, Луиза Лэссер, Билл Кэмпбелл, Тим Гини, Мишель Хёрст, Стивен Голдстин, Кэтрин Ллойд Барнс, Битти Шрэм, ...

О фильме: Продавец продуктового магазина для гурманов, ассистентка дантиста, увлекающаяся живописью, и молодой бизнесмен с двумя друзьями снимают квартиру. Каждый имеет право провести там один день в неделю и делать, что захочет. Продавец мечтает познакомиться с дамой сердца, девушка занимается живописью, а трое бизнесменов смотрят спортивные программы и пьют пиво. Постепенно между жильцами завязываются отношения…



Страна: США
Продолжительность: 01:38:34
Перевод: Профессиональный (двуголосый, закадровый) SDI Media Group
- Авторский (одноголосый, закадровый) Михалёв Алексей Михайлович

Кодек: MPEG4/ISO/AVC
Качество: WEB-DL 720p
Видео: 1280x716, 3964 kbps, 23,976 fps
Аудио #1: AC-3, 2 ch, 192 kbps (Rus) - DVO SDI Media Group
Аудио #2: AC-3, 2 ch, 192 kbps (Rus) - AVO Михалёв Алексей Михайлович
Аудио #3: AC-3, 2 ch, 192 kbps (Eng)
Субтитры: Английские

Звуковая дорожка с переводом Алексея Михалева появилась благодаря budulai-8 и яверь
Общее
Уникальный идентификатор : 209732930707083400509164550076825071877 (0x9DC917D927EAF479A47774B063BFF105)
Полное имя : Ночь, в которую мы никогда не встретимся (The Night We Never Met) 1993 WEB-DL 720p.mkv
Формат : Matroska
Версия формата : Version 2
Размер файла : 3,19 Гбайт
Продолжительность : 1 ч. 38 м.
Общий поток : 4632 Кбит/сек
Дата кодирования : UTC 2017-05-07 05:56:47
Программа кодирования : mkvmerge v4.0.0 ('The Stars were mine') сборка от Jun 6 2010 16:18:42
Библиотека кодирования : libebml v1.0.0 + libmatroska v1.0.0

Видео
Идентификатор : 1
Формат : AVC
Формат/Информация : Advanced Video Codec
Профиль формата : High@L3.1
Параметр CABAC формата : Нет
Параметр ReFrames формата : 2 кадра
Идентификатор кодека : V_MPEG4/ISO/AVC
Продолжительность : 1 ч. 38 м.
Битрейт : 3964 Кбит/сек
Ширина : 1280 пикселей
Высота : 716 пикселей
Соотношение сторон : 16:9
Режим частоты кадров : Постоянный
Частота кадров : 23,976 кадра/сек
Цветовое пространство : YUV
Субдискретизация насыщенности : 4:2:0
Битовая глубина : 8 бит
Тип развёртки : Прогрессивная
Бит/(Пиксели*Кадры) : 0.180
Размер потока : 2,73 Гбайт (86%)
Язык : English
Default : Нет
Forced : Нет
Цветовой диапазон : Limited
Основные цвета : BT.709
Характеристики трансфера : BT.709
Коэффициенты матрицы : BT.709

Аудио #1
Идентификатор : 2
Формат : AC-3
Формат/Информация : Audio Coding 3
Расширение режима : CM (complete main)
Параметр Endianness формата : Big
Идентификатор кодека : A_AC3
Продолжительность : 1 ч. 38 м.
Вид битрейта : Постоянный
Битрейт : 192 Кбит/сек
Каналы : 2 канала
Расположение каналов : Front: L R
Частота : 48,0 КГц
Частота кадров : 31,250 кадров/сек (1536 spf)
Метод сжатия : С потерями
Размер потока : 135 Мбайт (4%)
Заголовок : DVO SDI Media Group
Язык : Russian
Default : Нет
Forced : Нет

Аудио #2
Идентификатор : 3
Формат : AC-3
Формат/Информация : Audio Coding 3
Расширение режима : CM (complete main)
Параметр Endianness формата : Big
Идентификатор кодека : A_AC3
Продолжительность : 1 ч. 38 м.
Вид битрейта : Постоянный
Битрейт : 192 Кбит/сек
Каналы : 2 канала
Расположение каналов : Front: L R
Частота : 48,0 КГц
Частота кадров : 31,250 кадров/сек (1536 spf)
Метод сжатия : С потерями
Размер потока : 135 Мбайт (4%)
Заголовок : AVO Михалёв Алексей Михайлович [1944—1994]
Язык : Russian
Default : Нет
Forced : Нет

Аудио #3
Идентификатор : 4
Формат : AC-3
Формат/Информация : Audio Coding 3
Расширение режима : CM (complete main)
Параметр Endianness формата : Big
Идентификатор кодека : A_AC3
Продолжительность : 1 ч. 38 м.
Вид битрейта : Постоянный
Битрейт : 192 Кбит/сек
Каналы : 2 канала
Расположение каналов : Front: L R
Частота : 48,0 КГц
Частота кадров : 31,250 кадров/сек (1536 spf)
Метод сжатия : С потерями
Размер потока : 135 Мбайт (4%)
Язык : English
Default : Нет
Forced : Нет

Текст
Идентификатор : 5
Формат : UTF-8
Идентификатор кодека : S_TEXT/UTF8
Идентификатор кодека/Информация : UTF-8 Plain Text
Заголовок : SDH
Язык : English
Default : Нет
Forced : Нет


_________________
Проголосуй за трекер Открытый торрент трекер - RUS-MEDIA.ORG

Проголосуй Открытый торрент трекер - RUS-MEDIA.ORG


Вернуться к началу
 Профиль Отправить личное сообщение  
 
   Похожие торренты   Автор   Торрент   Размер 
В этой теме нет новых непрочитанных сообщений. Тихая ночь, смертельная ночь / Silent Night, Deadly Night [ужасы, триллер, слэшер, 1984] BDRip 720p, Avo

salma3

9 | 4

3.6 ГБ

В этой теме нет новых непрочитанных сообщений. Ночь страшного суда / Judgment Night [боевик, триллер, драма, криминал, 1993] BDRip 720p, Mvo

salma3

53 | 9

3.7 ГБ

В этой теме нет новых непрочитанных сообщений. Та ночь / That Night [драма, мелодрама, 1992] WEBRip 720p, Dvo

salma3

0 | 0

2.55 ГБ

В этой теме нет новых непрочитанных сообщений. Странная ночь / Ночь странных вещей / Странная ночь Night of Something Strange [ужасы, комедия, 2016] HDRip, Avo

salma3

161 | 138

755.3 МБ

В этой теме нет новых непрочитанных сообщений. Инициация: Тихая ночь, смертельная ночь 4 / Initiation: Silent Night, Deadly Night 4 [ужасы, 1990] WEB-DL 1080p, Avo

salma3

0 | 0

4.67 ГБ

В этой теме нет новых непрочитанных сообщений. Тихая ночь, смертельная ночь 3: Лучше поберегись! / Silent Night, Deadly Night 3: Better Watch Out! [ужасы, 1989] WEB-DL 1080p, Avo

salma3

0 | 0

7.93 ГБ

В этой теме нет новых непрочитанных сообщений. Инициация: Тихая ночь, смертельная ночь 4 / Initiation: Silent Night, Deadly Night 4 [ужасы, триллер, 1990] DVDRip, Avo

salma3

127 | 304

1.37 ГБ


Начать новую тему Ответить на тему  [ 1 сообщение ] 




Для Мосгорсуда, Роскомнадзора и рекламодателей:: mosgorsud-torrent[собачка]yandex.ru
cron