Торрент файл
скачать торрент магнет ссылка Добавлен: 05 май 2017, 16:16
Размер: 8.64 ГБ
Сидеров: 41
Личеров: 16
Статус: (salma3)
Автор

СообщениеДобавлено: 05 май 2017, 16:16 

Не в сети
Супермодератор
Аватара пользователя
Дата регистрации:
15 фев 2012, 16:44
Возраст: 28
Спасибо: 6589 / 2145
Сообщения: 44094
Год выхода: 1987
Жанр: ужасы, комедия
Режиссер: Билл Фрохлих

В ролях: Лори Летин, Брендан Хьюз, Алекс Рокко, Скотт Джейкоби, Энди Романо, Ричард Брестофф, Эл Фэнн, Пеппер Мартин, Морин МакКормик, Винс Эдвардс, ...

О фильме: Кинопродюсер Гарри Слирик привозит свою съемочную группу в колледж Криппен Хай, закрытый из-за серии таинственных, нераскрытых убийств. Он хочет создать достоверный фильм ужасов, в который приглашает бывших работников колледжа в качестве актеров. Но внезапное и необъяснимое исчезновение претендента на главную роль послужило началом целого ряда жутких происшествий…


Страна: США
Продолжительность: 01:34:11
Перевод: Профессиональный (двуголосый, закадровый) ?

Кодек: x264
Качество: BDRip 1080p
Видео: 1920x1080, 11500 kbps, 23,976 fps
Аудио #1: AC-3, 2 ch, 192 kbps (Rus) - DVO
Аудио #2: DTS, 2 ch, 1536 kbps (Eng)
Субтитры: Русские, Английские

Общее
Уникальный идентификатор : 233148713269966839668818462253761845556 (0xAF66CF10052961E8A16814CC4EDA5934)
Полное имя : C:TorrentВозвращение в школу ужасов (Return to Horror High) 1987 BDRip 1080p.mkv
Формат : Matroska
Версия формата : Version 2
Размер файла : 8,64 Гбайт
Продолжительность : 1 ч. 34 м.
Общий поток : 13,1 Мбит/сек
Дата кодирования : UTC 2017-05-04 12:56:29
Программа кодирования : mkvmerge v4.0.0 ('The Stars were mine') сборка от Jun 6 2010 16:18:42
Библиотека кодирования : libebml v1.0.0 + libmatroska v1.0.0

Видео
Идентификатор : 1
Формат : AVC
Формат/Информация : Advanced Video Codec
Профиль формата : High@L4.1
Параметр CABAC формата : Да
Параметр ReFrames формата : 4 кадра
Идентификатор кодека : V_MPEG4/ISO/AVC
Продолжительность : 1 ч. 34 м.
Битрейт : 11,5 Мбит/сек
Ширина : 1920 пикселей
Высота : 1080 пикселей
Соотношение сторон : 16:9
Режим частоты кадров : Постоянный
Частота кадров : 23,976 (24000/1001) кадра/сек
Цветовое пространство : YUV
Субдискретизация насыщенности : 4:2:0
Битовая глубина : 8 бит
Тип развёртки : Прогрессивная
Бит/(Пиксели*Кадры) : 0.231
Размер потока : 7,31 Гбайт (85%)
Библиотека кодирования : x264 core 148 r2694 3b70645
Настройки программы : cabac=1 / ref=4 / deblock=1:-2:-2 / analyse=0x3:0x113 / me=umh / subme=9 / psy=1 / psy_rd=1.00:0.15 / mixed_ref=1 / me_range=16 / chroma_me=1 / trellis=2 / 8x8dct=1 / cqm=0 / deadzone=21,11 / fast_pskip=1 / chroma_qp_offset=-3 / threads=24 / lookahead_threads=3 / sliced_threads=0 / nr=0 / decimate=1 / interlaced=0 / bluray_compat=0 / constrained_intra=0 / bframes=3 / b_pyramid=2 / b_adapt=2 / b_bias=0 / direct=3 / weightb=1 / open_gop=0 / weightp=2 / keyint=250 / keyint_min=25 / scenecut=40 / intra_refresh=0 / rc_lookahead=50 / rc=abr / mbtree=1 / bitrate=11500 / ratetol=1.0 / qcomp=0.60 / qpmin=0 / qpmax=69 / qpstep=4 / vbv_maxrate=31250 / vbv_bufsize=31250 / nal_hrd=none / filler=0 / ip_ratio=1.40 / aq=1:1.00
Язык : English
Default : Нет
Forced : Нет

Аудио #1
Идентификатор : 2
Формат : AC-3
Формат/Информация : Audio Coding 3
Расширение режима : CM (complete main)
Параметр Endianness формата : Big
Идентификатор кодека : A_AC3
Продолжительность : 1 ч. 34 м.
Вид битрейта : Постоянный
Битрейт : 224 Кбит/сек
Каналы : 2 канала
Расположение каналов : Front: L R
Частота : 48,0 КГц
Частота кадров : 31,250 кадров/сек (1536 spf)
Метод сжатия : С потерями
Размер потока : 151 Мбайт (2%)
Заголовок : DVO
Язык : Russian
Default : Нет
Forced : Нет

Аудио #2
Идентификатор : 3
Формат : DTS
Формат/Информация : Digital Theater Systems
Режим : 16
Параметр Endianness формата : Big
Идентификатор кодека : A_DTS
Продолжительность : 1 ч. 34 м.
Вид битрейта : Постоянный
Битрейт : 1536 Кбит/сек
Каналы : 2 канала
Расположение каналов : Front: L R
Частота : 48,0 КГц
Частота кадров : 93,750 кадра/сек (512 spf)
Битовая глубина : 16 бит
Метод сжатия : С потерями
Размер потока : 1,01 Гбайт (12%)
Язык : English
Default : Нет
Forced : Нет

Текст #1
Идентификатор : 4
Формат : UTF-8
Идентификатор кодека : S_TEXT/UTF8
Идентификатор кодека/Информация : UTF-8 Plain Text
Язык : Russian
Default : Нет
Forced : Нет

Текст #2
Идентификатор : 5
Формат : UTF-8
Идентификатор кодека : S_TEXT/UTF8
Идентификатор кодека/Информация : UTF-8 Plain Text
Язык : English
Default : Нет
Forced : Нет


_________________
Проголосуй за трекер Открытый торрент трекер - RUS-MEDIA.ORG

Проголосуй Открытый торрент трекер - RUS-MEDIA.ORG



реклама партнёра


Вернуться к началу
 Профиль Отправить личное сообщение  
 
   Похожие торренты   Автор   Торрент   Размер 
В этой теме нет новых непрочитанных сообщений. Возвращение в школу ужасов / Return to Horror High [ужасы, комедия, 1987] HDRip, Mvo

salma3

45 | 7

1.45 ГБ

В этой теме нет новых непрочитанных сообщений. Дом 3: Шоу ужасов / The Horror Show [ужасы, 1989] BDRip 1080p, Mvo

salma3

94 | 46

9.24 ГБ

В этой теме нет новых непрочитанных сообщений. Возвращение живых мертвецов / The Return of the Living Dead [ужасы, комедия, 1985] BDRip 1080p, Mvo [Remastered]

salma3

4 | 0

9.95 ГБ

В этой теме нет новых непрочитанных сообщений. Калейдоскоп ужасов 2 / Creepshow 2 [ужасы, фэнтези, триллер, комедия, 1987] BDRip, Avo [Remastered]

salma3

85 | 23

1.45 ГБ

В этой теме нет новых непрочитанных сообщений. Возвращение живых мертвецов / The Return of the Living Dead [ужасы, комедия, 1985] BDRemux 1080p, Mvo [Remastered]

salma3

6 | 5

25.86 ГБ

В этой теме нет новых непрочитанных сообщений. Возвращение живых мертвецов / The Return of the Living Dead [ужасы, комедия, 1985] BDRip, Avo [Remastered]

salma3

38 | 13

1.45 ГБ

В этой теме нет новых непрочитанных сообщений. Возвращение помидоров-убийц / Return of the Killer Tomatoes [Комедия, фантастика, ужасы, 1988] BDRip-AVC, Dvo

salma3

3 | 3

2.03 ГБ


Начать новую тему Ответить на тему  [ 1 сообщение ] 




Для Мосгорсуда, Роскомнадзора и рекламодателей:: mosgorsud-torrent[собачка]yandex.ru