Торрент файл
скачать торрент магнет ссылка Добавлен: 04 май 2017, 11:50
Размер: 3.47 ГБ
Сидеров: 3
Личеров: 8
Статус: (salma3)
Автор

СообщениеДобавлено: 04 май 2017, 11:50 

Не в сети
Супермодератор
Аватара пользователя
Дата регистрации:
15 фев 2012, 16:44
Возраст: 28
Спасибо: 6468 / 2129
Сообщения: 40878
Год выхода: 2003
Жанр: драма, мелодрама, комедия
Режиссер: София Коппола

В ролях: Скарлетт Йоханссон, Билл Мюррэй, Джованни Рибизи, Анна Фэрис, Кэтрин Лэмберт, Акико Такешита, Фумихиро Хаяши, Хироко Кавасаки, Нобухико Китамура

О фильме:
Токио, ночь, фешенебельный бар дорогого отеля… Здесь, спасаясь от бессонницы, встречаются двое американцев: телевизионный актер Боб Харрис и симпатичная молодая женщина Шарлотта. Познакомившись, они пускаются вместе в путешествие по японской столице. Во время своей многочасовой прогулки Боб и Шарлотта попадают в забавные истории и неожиданные перипетии, знакомясь с местными жителями. Жизнь восточного мира открывается американцам яркими и незнакомыми гранями, помогает обнаружить в себе веру в потрясающие человеческие возможности. А случайные встречи становятся очень нужными и важными для постижения жизни.



Страна: США, Япония
Продолжительность: 01:41:40
Перевод: Профессиональный (полное дублирование)

Файл
Кодек: H264
Качество: BDRip 720p
Видео: 4 433 kb/s, 1280x694, 23.976fps, high L4.1, yuv420p
Звук: Russian, AC3, 48000Hz, 6ch, 448kbps
Субтитры: русские форсированные и полные

General
Unique ID : 175411412970880532067245908521873357657 (0x83F702605B5D1003A28AB654612CBB59)
Complete name : D:11111111111111Трудности перевода.2003.BDRip.720р.mkv
Format : Matroska
Format version : Version 4 / Version 2
File size : 3.47 GiB
Duration : 1 h 41 min
Overall bit rate : 4 878 kb/s
Encoded date : UTC 2017-05-03 15:15:13
Writing application : mkvmerge v8.3.0 ('Over the Horizon') 64bit
Writing library : libebml v1.3.1 + libmatroska v1.4.2 / Lavf57.57.100
Video
ID : 1
Format : AVC
Format/Info : Advanced Video Codec
Format profile : High@L4.1
Format settings, CABAC : Yes
Format settings, ReFrames : 2 frames
Codec ID : V_MPEG4/ISO/AVC
Duration : 1 h 41 min
Bit rate : 4 433 kb/s
Width : 1 280 pixels
Height : 694 pixels
Display aspect ratio : 1.85:1
Frame rate mode : Constant
Frame rate : 23.976 (24000/1001) FPS
Color space : YUV
Chroma subsampling : 4:2:0
Bit depth : 8 bits
Scan type : Progressive
Bits/(Pixel*Frame) : 0.208
Stream size : 3.15 GiB (91%)
Writing library : Lavc57.66.101 nvenc_h264
Language : English
Default : Yes
Forced : No
Audio
ID : 2
Format : AC-3
Format/Info : Audio Coding 3
Format settings, Endianness : Big
Codec ID : A_AC3
Duration : 1 h 41 min
Bit rate mode : Constant
Bit rate : 448 kb/s
Channel(s) : 6 channels
Channel positions : Front: L C R, Side: L R, LFE
Sampling rate : 48.0 kHz
Frame rate : 31.250 FPS (1536 spf)
Bit depth : 16 bits
Compression mode : Lossy
Stream size : 326 MiB (9%)
Title : RUS.DUB.448kbps
Language : Russian
Service kind : Complete Main
Default : Yes
Forced : No
Text #1
ID : 3
Format : UTF-8
Codec ID : S_TEXT/UTF8
Codec ID/Info : UTF-8 Plain Text
Duration : 3 min 4 s
Bit rate : 100 b/s
Count of elements : 46
Stream size : 2.28 KiB (0%)
Title : RUS.FORCED
Language : Russian
Default : Yes
Forced : Yes
Text #2
ID : 4
Format : UTF-8
Codec ID : S_TEXT/UTF8
Codec ID/Info : UTF-8 Plain Text
Duration : 1 h 36 min
Bit rate : 51 b/s
Count of elements : 726
Stream size : 36.6 KiB (0%)
Title : RUS.Dub
Language : Russian
Default : No
Forced : No
Text #3
ID : 5
Format : UTF-8
Codec ID : S_TEXT/UTF8
Codec ID/Info : UTF-8 Plain Text
Duration : 1 h 35 min
Bit rate : 62 b/s
Count of elements : 793
Stream size : 43.8 KiB (0%)
Title : RUS.Remez
Language : Russian
Default : No
Forced : No
Text #4
ID : 6
Format : UTF-8
Codec ID : S_TEXT/UTF8
Codec ID/Info : UTF-8 Plain Text
Duration : 1 h 34 min
Bit rate : 63 b/s
Count of elements : 872
Stream size : 44.4 KiB (0%)
Title : RUS.Stalk
Language : Russian
Default : No
Forced : No
Menu
00:00:00.000 : :Глава 01
00:10:00.000 : :Глава 02
00:20:00.000 : :Глава 03
00:30:00.000 : :Глава 04
00:40:00.000 : :Глава 05
00:50:00.000 : :Глава 06
01:00:00.000 : :Глава 07
01:10:00.000 : :Глава 08
01:20:00.000 : :Глава 09
01:30:00.000 : :Глава 10
01:40:00.000 : :Глава 11


_________________
Проголосуй за трекер Открытый торрент трекер - RUS-MEDIA.ORG

Проголосуй Открытый торрент трекер - RUS-MEDIA.ORG



реклама партнёра


Вернуться к началу
 Профиль Отправить личное сообщение  
 
   Похожие торренты   Автор   Торрент   Размер 
В этой теме нет новых непрочитанных сообщений. Трудности ассимиляции / Fresh Off the Boat [03x01-12 из 24] ( Комедия, 2017) HDTVRip 720p | Sunshine Studio

marya111

24 | 21

5.62 ГБ

В этой теме нет новых непрочитанных сообщений. Окно напротив / La Finestra di fronte [Драма, мелодрама, 2003] BDRip 720p, Mvo+Sub

salma3

57 | 2

2.9 ГБ

В этой теме нет новых непрочитанных сообщений. За гранью / Beyond Borders [драма, мелодрама, приключения, военный, 2003] BDRip 720p, Mvo+Dvo+Sub

salma3

72 | 10

5.94 ГБ

В этой теме нет новых непрочитанных сообщений. Потерянный рай / Escobar: Paradise Lost (Андреа Ди Стефано) [триллер, мелодрама, 2014] BDRip 720p, Mvo

Марик

167 | 11

7.54 ГБ

В этой теме нет новых непрочитанных сообщений. Голова в облаках / Head in the Clouds [драма, мелодрама, военный, 2003] BDRip 720p, Dub+Sub [Лицензия]

salma3

100 | 5

4.36 ГБ

В этой теме нет новых непрочитанных сообщений. Потерянные в Америке / Lost in America [комедия, 1985] BDRip 720p, Avo

salma3

1 | 12

6.72 ГБ

В этой теме нет новых непрочитанных сообщений. Развод / Le Divorce [Драма, мелодрама, комедия, 2003] WEB-DLRip 720p, Dub

salma3

35 | 15

3.99 ГБ


Начать новую тему Ответить на тему  [ 1 сообщение ] 




Для Мосгорсуда, Роскомнадзора и рекламодателей:: mosgorsud-torrent[собачка]yandex.ru