Торрент файл
скачать торрент магнет ссылка Добавлен: 03 май 2017, 11:47
Размер: 5 ГБ
Сидеров: 38
Личеров: 13
Статус: (salma3)
Автор

СообщениеДобавлено: 03 май 2017, 11:47 

Не в сети
Супермодератор
Аватара пользователя
Дата регистрации:
15 фев 2012, 16:44
Возраст: 28
Спасибо: 6643 / 2146
Сообщения: 45769
Год выхода: 1986
Жанр: триллер, драма, криминал, биография
Режиссер:Джон МакНотон / John McNaughton

В ролях: Майкл Рукер, Том Таулз, Трэйси Арнольд, Мэри Демас, Энн Бартолетти, Элизабет Каден, Тед Каден, Денис Салливан, Анита Орес, Меган Орес

О фильме: Одинокий бродяга Генри вовлекает своего туповатого сокамерника по тюрьме Отиса в серию бессмысленных убийств. Наугад выбирая свои жертвы, они каждый раз изобретают новые способы убийства. Сестра Отиса Бекки приезжает в Чикаго погостить и влюбляется в Генри.



Выпущено: США
Продолжительность: 01:22:18
Перевод 1: Профессиональный (многоголосый закадровый) Настроение Video
Перевод 2: Авторский (одноголосый закадровый) Вартан Дохалов
Перевод 3: Авторский Одноголосый закадровый [Вячеслав Котов]
Перевод 4: Авторский Одноголосый закадровый [color=green][Константин Филонов]

Качество: BDRip
Видео: 960x720, 6805 kbps, 23.976 fps
Аудио #1: AC3 6 channels, 48 KHz, 448 kbps | Russian | Многоголосый
Аудио #2: AC3 2 channels, 48 KHz, 256 kbps | Russian | Вячеслав Котов
Аудио #3: AC3 2 channels, 48 KHz, 192 kbps | Russian | Константин Филонов
Аудио #4: AC3 2 channels, 48 KHz, 192 kbps | Russian | Вартан Дохалов
Аудио #5: AC3 2 channels, 48 KHz, 640 kbps | English | Original
Субтитры: русские, английские

General
Format : Matroska
File size : 5.00 GiB
Duration : 1h 22mn
Overall bit rate : 8 691 Kbps
Encoded date : UTC 2010-10-12 21:48:22
Writing application : mkvmerge v2.9.7 ('Tenderness') built on Jul 1 2009 18:43:35
Writing library : libebml v0.7.7 + libmatroska v0.8.1
Video
ID : 1
Format : AVC
Format/Info : Advanced Video Codec
Format profile : High@L3.1
Format settings, CABAC : Yes
Format settings, ReFrames : 5 frames
Muxing mode : Container profile=Unknown@3.1
Codec ID : V_MPEG4/ISO/AVC
Duration : 1h 22mn
Bit rate : 6 790 Kbps
Nominal bit rate : 6 963 Kbps
Width : 960 pixels
Height : 720 pixels
Display aspect ratio : 4:3
Frame rate : 23.976 fps
Resolution : 24 bits
Colorimetry : 4:2:0
Scan type : Progressive
Bits/(Pixel*Frame) : 0.410
Stream size : 3.90 GiB (78%)
Writing library : x264 core 75 r1251 e553a4c
Encoding settings : cabac=1 / ref=5 / deblock=1:0:0 / analyse=0x3:0x113 / me=umh / subme=7 / psy=1 / psy_rd=1.0:0.0 / mixed_ref=1 / me_range=16 / chroma_me=1 / trellis=1 / 8x8dct=1 / cqm=0 / deadzone=21,11 / chroma_qp_offset=-2 / threads=12 / nr=0 / decimate=1 / mbaff=0 / bframes=3 / b_pyramid=0 / b_adapt=1 / b_bias=0 / direct=1 / wpredb=1 / keyint=250 / keyint_min=25 / scenecut=40 / rc_lookahead=40 / rc=2pass / mbtree=1 / bitrate=6963 / ratetol=1.0 / qcomp=0.60 / qpmin=10 / qpmax=51 / qpstep=4 / cplxblur=20.0 / qblur=0.5 / ip_ratio=1.40 / aq=1:1.00
Language : English
Audio #1
ID : 2
Format : AC-3
Format/Info : Audio Coding 3
Codec ID : A_AC3
Duration : 1h 22mn
Bit rate mode : Constant
Bit rate : 448 Kbps
Channel(s) : 6 channels
Channel positions : Front: L C R, Surround: L R, LFE
Sampling rate : 48.0 KHz
Stream size : 264 MiB (5%)
Title : MVO
Language : Russian
Audio #2
ID : 3
Format : AC-3
Format/Info : Audio Coding 3
Codec ID : A_AC3
Duration : 1h 22mn
Bit rate mode : Constant
Bit rate : 256 Kbps
Channel(s) : 2 channels
Channel positions : L R
Sampling rate : 48.0 KHz
Stream size : 151 MiB (3%)
Title : AVO V. Kotov
Language : Russian
Audio #3
ID : 4
Format : AC-3
Format/Info : Audio Coding 3
Codec ID : A_AC3
Duration : 1h 22mn
Bit rate mode : Constant
Bit rate : 192 Kbps
Channel(s) : 2 channels
Channel positions : L R
Sampling rate : 48.0 KHz
Stream size : 113 MiB (2%)
Title : AVO K. Filonov
Language : Russian
Audio #4
ID : 5
Format : AC-3
Format/Info : Audio Coding 3
Codec ID : A_AC3
Duration : 1h 22mn
Bit rate mode : Constant
Bit rate : 192 Kbps
Channel(s) : 2 channels
Channel positions : L R
Sampling rate : 48.0 KHz
Stream size : 113 MiB (2%)
Title : AVO V.Dohalov
Language : Russian
Audio #5
ID : 6
Format : AC-3
Format/Info : Audio Coding 3
Codec ID : A_AC3
Duration : 1h 22mn
Bit rate mode : Constant
Bit rate : 640 Kbps
Channel(s) : 2 channels
Channel positions : L R
Sampling rate : 48.0 KHz
Stream size : 377 MiB (7%)
Title : original
Language : English
Text #1
ID : 7
Format : UTF-8
Codec ID : S_TEXT/UTF8
Codec ID/Info : UTF-8 Plain Text
Language : Russian
Text #2
ID : 8
Format : UTF-8
Codec ID : S_TEXT/UTF8
Codec ID/Info : UTF-8 Plain Text
Language : English


_________________
Проголосуй за трекер Открытый торрент трекер - RUS-MEDIA.ORG

Проголосуй Открытый торрент трекер - RUS-MEDIA.ORG



реклама партнёра


Вернуться к началу
 Профиль Отправить личное сообщение  
 
   Похожие торренты   Автор   Торрент   Размер 
В этой теме нет новых непрочитанных сообщений. Генри и Джун / Henry and June [драма, биография, 1990] BDRip 720p, Mvo

salma3

0 | 0

7.11 ГБ

В этой теме нет новых непрочитанных сообщений. Портрет леди / The Portrait of a Lady [драма, мелодрама, 1996] BDRip 720p, Mvo

salma3

26 | 14

4.75 ГБ

В этой теме нет новых непрочитанных сообщений. Книга Генри / The Book of Henry [триллер, драма, криминал, 2017] WEB-DLRip 720p, Mvo

salma3

101 | 11

3.36 ГБ

В этой теме нет новых непрочитанных сообщений. Код убийцы / Code of a Killer [S01] (Джеймс Стронг) [драма, триллер, криминал, 2014] WEB-DL 720p, Mvo [AlexFilm]

Dracon

149 | 48

5.69 ГБ

В этой теме нет новых непрочитанных сообщений. Книга Генри / The Book of Henry [триллер, драма, криминал, 2017] HDRip, Mvo

salma3

0 | 0

1.46 ГБ

В этой теме нет новых непрочитанных сообщений. Генри и Джун / Henry & June [драма, биография, 1990] BDRemux 1080p, Mvo

salma3

19 | 6

35.07 ГБ

В этой теме нет новых непрочитанных сообщений. Я не серийный убийца / I Am Not a Serial Killer (триллер, 2016) BDRip от Koenig | L

marya111

258 | 17

1.45 ГБ


Начать новую тему Ответить на тему  [ 1 сообщение ] 




Для Мосгорсуда, Роскомнадзора и рекламодателей:: mosgorsud-torrent[собачка]yandex.ru