Торрент файл
скачать торрент магнет ссылка Добавлен: 30 апр 2017, 21:45
Размер: 4.41 ГБ
Сидеров: 191
Личеров: 43
Статус: (salma3)
Автор

СообщениеДобавлено: 30 апр 2017, 21:45 

Не в сети
Супермодератор
Аватара пользователя
Дата регистрации:
15 фев 2012, 16:44
Возраст: 28
Спасибо: 6642 / 2146
Сообщения: 45664
Год выхода: 1997
Жанр: драма, комедия, биография
Режиссер: Бетти Томас

В ролях: Говард Стерн, Робин Куиверс, Мэри МакКормак, Фред Норрис, Пол Джаматти, Гари Делл’Абат, Джекки Мартлинг, Кэрол Олт, Ричард Портноу, Келли Бишоп

О фильме:
По автобиографической книге Говарда Стерна, популярнейшего радио диск-жокея, снявшегося в картине в роли самого себя. Он добился успеха, благодаря своей шокирующей искренности и вследствие этого невероятной скандальности, так как люди обычно не рассказывают о себе, а подбирают для острот выдуманный персонаж.

«Почему вы слушаете его?», — спрашивают людей на улице. — «А интересно, что он скажет дальше». Рассказ об этом непредсказуемом комике — импровизаторе построен режиссером от первого лица и начинается с детства, когда будущей звезде эфира было лет восемь. По жанру фильм, конечно, — комедия, но по сути — это драма, в которой, как и в жизни, есть много грустного и смешного.



Страна: США
Студия: Northern Lights Entertainment, Paramount Pictures, Rysher Entertainment
Продолжительность: 01:49:29
Перевод: Профессиональный (двухголосый, закадровый) + Авторский (одноголосый, закадровый) Д.Есарев + Авторский (одноголосый, закадровый) П.Санаев

Файл
Формат: Matroska
Качество: WEB-DL 720p
Видео: 1280x718 at 23.976 fps, MPEG4-AVC, ~4000 kbps avg
Аудио#1: Russian: 48 kHz, AC3, 3/2 (L,C,R,l,r) + LFE ch, ~384 kbps avg |Двухголосый закадровый|
Аудио#2: Russian: 48 kHz, AC3, 3/2 (L,C,R,l,r) + LFE ch, ~448 kbps avg |Авторский, Д.Есарев|
Аудио#3: Russian: 48 kHz, AC3, 3/2 (L,C,R,l,r) + LFE ch, ~448 kbps avg |Авторский, П.Санаев|
Аудио#4: English: 48 kHz, AC3, 3/2 (L,C,R,l,r) + LFE ch, ~448 kbps avg
Субтитры: Russian, English

***Сохранены и подписаны оригинальные главы.
***Сборка, синхронизация дорожек: igrok2012.
***Перевод Д.Есарева доступен благодаря: nortonn. Работа со звуком: mihaildns.
***Внимание! В переводах присутствует ненормативная лексика.

Общее
Уникальный идентификатор : 210494484766991869359483430423838881237 (0x9E5BC35CC1D24991B8138D729FE475D5)
Полное имя : Private.Parts.1997.720p.WEB-DL.3xRus.Eng.Sub.x264.mkv
Формат : Matroska
Версия формата : Version 2
Размер файла : 4,41 Гбайт
Продолжительность : 1 ч. 49 м.
Общий поток : 5769 Кбит/сек
Название фильма : Private.Parts.1997 | igrok2012
Дата кодирования : UTC 2016-11-15 19:16:17
Программа кодирования : mkvmerge v8.3.0 ('Over the Horizon') 64bit
Библиотека кодирования : libebml v1.3.1 + libmatroska v1.4.2
Attachment : Yes

Видео
Идентификатор : 1
Формат : AVC
Формат/Информация : Advanced Video Codec
Профиль формата : High@L3.1
Параметр CABAC формата : Нет
Параметр ReFrames формата : 2 кадра
Идентификатор кодека : V_MPEG4/ISO/AVC
Продолжительность : 1 ч. 49 м.
Битрейт : 3926 Кбит/сек
Ширина : 1280 пикселей
Высота : 718 пикселей
Соотношение сторон : 16:9
Режим частоты кадров : Постоянный
Частота кадров : 23,976 кадра/сек
Цветовое пространство : YUV
Субдискретизация насыщенности : 4:2:0
Битовая глубина : 8 бит
Тип развёртки : Прогрессивная
Бит/(Пиксели*Кадры) : 0.178
Размер потока : 3,00 Гбайт (68%)
Заголовок : Private.Parts.1997.720p.WEB-DL
Язык : English
Default : Да
Forced : Нет
Основные цвета : BT.709
Характеристики трансфера : BT.709
Коэффициенты матрицы : BT.709

Аудио #1
Идентификатор : 2
Формат : AC-3
Формат/Информация : Audio Coding 3
Расширение режима : CM (complete main)
Параметр Endianness формата : Big
Идентификатор кодека : A_AC3
Продолжительность : 1 ч. 49 м.
Вид битрейта : Постоянный
Битрейт : 384 Кбит/сек
Каналы : 6 каналов
Расположение каналов : Front: L C R, Side: L R, LFE
Частота : 48,0 КГц
Битовая глубина : 16 бит
Метод сжатия : С потерями
Размер потока : 301 Мбайт (7%)
Заголовок : Двухголосый закадровый
Язык : Russian
Default : Да
Forced : Нет

Аудио #2
Идентификатор : 3
Формат : AC-3
Формат/Информация : Audio Coding 3
Расширение режима : CM (complete main)
Параметр Endianness формата : Big
Идентификатор кодека : A_AC3
Продолжительность : 1 ч. 49 м.
Вид битрейта : Постоянный
Битрейт : 448 Кбит/сек
Каналы : 6 каналов
Расположение каналов : Front: L C R, Side: L R, LFE
Частота : 48,0 КГц
Битовая глубина : 16 бит
Метод сжатия : С потерями
Размер потока : 351 Мбайт (8%)
Заголовок : Одноголосый закадровый, Д. Есарев
Язык : Russian
Default : Нет
Forced : Нет

Аудио #3
Идентификатор : 4
Формат : AC-3
Формат/Информация : Audio Coding 3
Расширение режима : CM (complete main)
Параметр Endianness формата : Big
Идентификатор кодека : A_AC3
Продолжительность : 1 ч. 49 м.
Вид битрейта : Постоянный
Битрейт : 448 Кбит/сек
Каналы : 6 каналов
Расположение каналов : Front: L C R, Side: L R, LFE
Частота : 48,0 КГц
Битовая глубина : 16 бит
Метод сжатия : С потерями
Размер потока : 351 Мбайт (8%)
Заголовок : Одноголосый закадровый, П. Санаев
Язык : Russian
Default : Нет
Forced : Нет

Аудио #4
Идентификатор : 5
Формат : AC-3
Формат/Информация : Audio Coding 3
Расширение режима : CM (complete main)
Параметр Endianness формата : Big
Идентификатор кодека : A_AC3
Продолжительность : 1 ч. 49 м.
Вид битрейта : Постоянный
Битрейт : 448 Кбит/сек
Каналы : 6 каналов
Расположение каналов : Front: L C R, Side: L R, LFE
Частота : 48,0 КГц
Битовая глубина : 16 бит
Метод сжатия : С потерями
Размер потока : 351 Мбайт (8%)
Язык : English
Default : Нет
Forced : Нет

Текст #1
Идентификатор : 6
Формат : UTF-8
Идентификатор кодека : S_TEXT/UTF8
Идентификатор кодека/Информация : UTF-8 Plain Text
Язык : Russian
Default : Нет
Forced : Нет

Текст #2
Идентификатор : 7
Формат : UTF-8
Идентификатор кодека : S_TEXT/UTF8
Идентификатор кодека/Информация : UTF-8 Plain Text
Язык : English
Default : Нет
Forced : Нет

Меню
00:00:00.000 : en:Opening credits/Fartman
00:05:51.000 : en:The Early Years
00:09:49.000 : en:Roosevelt High School
00:11:30.000 : en:Boston U & The Howard Experience
00:13:26.000 : en:Alison
00:16:34.000 : en:Westchester, NY
00:19:51.000 : en:"Disc jockeys are dogs!"
00:22:13.000 : en:Howard Goes To Hartford
00:26:16.000 : en:Opening Night With Brittany Fairchild
00:32:19.000 : en:Alison Walks Out
00:34:28.000 : en:Detroit
00:39:25.000 : en:Alison Comes Back
00:42:50.000 : en:Howard's Revelation
00:43:59.000 : en:Washington, DC And The Other Woman
00:51:11.000 : en:Baby Fever
00:52:15.000 : en:Sex On The Radio
00:56:31.000 : en:Fred Comes To Town
00:57:17.000 : en:Lesbians = Ratings
00:59:44.000 : en:Alison's Miscarriage
01:05:02.000 : en:Big News
01:06:29.000 : en:Howard Goes To NY
01:10:07.000 : en:Pig Vomit
01:13:15.000 : en:On The Air With WNBC
01:16:40.000 : en:The Match Game
01:21:35.000 : en:Meet Ross Buckingham
01:24:15.000 : en:The Kielbasa Queen
01:27:21.000 : en:Welcome Back, Robin
01:30:01.000 : en:Naked Lady On The Radio
01:35:52.000 : en:Howard On Letterman
01:39:45.000 : en:Stern Rules
01:41:57.000 : en:Howard's Epilogue
01:44:23.000 : en:End Credits


_________________
Проголосуй за трекер Открытый торрент трекер - RUS-MEDIA.ORG

Проголосуй Открытый торрент трекер - RUS-MEDIA.ORG



реклама партнёра


Вернуться к началу
 Профиль Отправить личное сообщение  
 
   Похожие торренты   Автор   Торрент   Размер 
В этой теме нет новых непрочитанных сообщений. Части тела / Private Parts [драма, комедия, биография, 1997] WEB-DL 720p, Dvo+Avo

salma3

177 | 27

4.36 ГБ

В этой теме нет новых непрочитанных сообщений. Префонтейн / Prefontaine [драма, мелодрама, биография, спорт, 1997] WEB-DL 720p, Dvo

salma3

0 | 0

3.43 ГБ

В этой теме нет новых непрочитанных сообщений. Крепкие тела / Hardbodies [комедия, 1984] BDRip 720p, Mvo [СТС]

salma3

20 | 4

8.53 ГБ

В этой теме нет новых непрочитанных сообщений. Ранимая душа / Sensitive Parts (Брендан Прост / Brendan Prost) [2017г., Канада, драма, мелодрама, комедия, WEB-DLRip] MVO

Alfredovich

4 | 2

1.37 ГБ

В этой теме нет новых непрочитанных сообщений. Private Gold 154: Private Sex School / Частная секс школа (Frank Thring, Private) [2013 г., Anal, DP, Big Boobs, Facial Cumshot, Group, Threesome, 540p, WEB-DL](Split Scenes)

salma3

38 | 13

2.53 ГБ

В этой теме нет новых непрочитанных сообщений. Private Specials 72: Italian Putanas / Private Specials 72: Итальянские Проститутки (Omar Galanti / Private) [2013 г., Gonzo, Anal, DP, 540p, WEB-DL] (Split Scenes)

salma3

23 | 8

3.03 ГБ

В этой теме нет новых непрочитанных сообщений. Private Specials 153 : Share My Wife / Private Specials 153 : Моя Доступная Жена (Private) [2017 г., Gonzo, Big Ass, Big Tits,MILFs, Anal, DP, Threesome, Fetish, DVDRip]

salma3

6 | 1

994.95 МБ


Начать новую тему Ответить на тему  [ 1 сообщение ] 




Для Мосгорсуда, Роскомнадзора и рекламодателей:: mosgorsud-torrent[собачка]yandex.ru