Торрент файл
скачать торрент магнет ссылка Добавлен: 29 апр 2017, 12:50
Размер: 8.87 ГБ
Сидеров: 40
Личеров: 19
Статус: (salma3)
Автор

СообщениеДобавлено: 29 апр 2017, 12:50 

Не в сети
Супермодератор
Аватара пользователя
Дата регистрации:
15 фев 2012, 16:44
Возраст: 28
Спасибо: 7163 / 2147
Сообщения: 61819
Год выхода: 1995
Жанр: ужасы, триллер
Режиссер: Расти Кандифф

В ролях: Кларенс Уильямс III, Джо Торри, Де`андре Бондс, Сэмюэл Монро мл., Уингз Хаузер, Том Райт, Энтони Гриффит, Майкл Масси, Дуан Уайтакер, Дэвид Алан Грайрю, Брэндон Хэммонд, Паула Джей Паркер, Корбин Бернсен, Роджер Гуэнвёр Смит, Арт Эванс, Розалинд Кэш, Ламонт Бентли, Дон Доу, Мун Джонс, Крис Эдвардс, Трой Картрайт, Брендан Джеффресон, Эрика Хансен, Тим Хатчинсон, ...

О фильме: Фильм ужасов, состоящий из четырех коротких новелл. Три члена уличной банды приходят в морг, так как, по их сведениям, хозяин этого заведения приторговывает наркотиками. Вместо этого им рассказывают истории ужасов…
Мрачные городские новеллы. В стиле баек из склепа.



Страна: США
Продолжительность: 01:37:32
Перевод: Авторский (одноголосый, закадровый) [Карцев Петр]

Кодек: x264
Качество: BDRip 1080p
Видео: 1916x1040, 11500 kbps, 23,976 fps
Аудио #1: AC-3, 2 ch, 192 kbps (Rus) - AVO Карцев Петр
Аудио #2: DTS, 2 ch, 1509 kbps (Eng)
Субтитры: английские
Общее
Уникальный идентификатор : 227769096861373201099216211626900210212 (0xAB5ABB7EE72893E38589DA4FA5FE4224)
Полное имя : Истории квартала (Tales from the Hood) 1995 BDRip 1080p.mkv
Формат : Matroska
Версия формата : Version 2
Размер файла : 8,87 Гбайт
Продолжительность : 1 ч. 37 м.
Общий поток : 13,0 Мбит/сек
Дата кодирования : UTC 2017-04-24 21:32:16
Программа кодирования : mkvmerge v4.0.0 ('The Stars were mine') сборка от Jun 6 2010 16:18:42
Библиотека кодирования : libebml v1.0.0 + libmatroska v1.0.0

Видео
Идентификатор : 1
Формат : AVC
Формат/Информация : Advanced Video Codec
Профиль формата : High@L4.1
Параметр CABAC формата : Да
Параметр ReFrames формата : 4 кадра
Идентификатор кодека : V_MPEG4/ISO/AVC
Продолжительность : 1 ч. 37 м.
Битрейт : 11,5 Мбит/сек
Ширина : 1916 пикселей
Высота : 1040 пикселей
Соотношение сторон : 1,85:1
Режим частоты кадров : Постоянный
Частота кадров : 23,976 (24000/1001) кадра/сек
Цветовое пространство : YUV
Субдискретизация насыщенности : 4:2:0
Битовая глубина : 8 бит
Тип развёртки : Прогрессивная
Бит/(Пиксели*Кадры) : 0.241
Размер потока : 7,54 Гбайт (85%)
Библиотека кодирования : x264 core 148 r2748 97eaef2
Настройки программы : cabac=1 / ref=4 / deblock=1:-2:-2 / analyse=0x3:0x113 / me=umh / subme=7 / psy=1 / psy_rd=1.00:0.15 / mixed_ref=1 / me_range=16 / chroma_me=1 / trellis=1 / 8x8dct=1 / cqm=0 / deadzone=21,11 / fast_pskip=1 / chroma_qp_offset=-3 / threads=40 / lookahead_threads=3 / sliced_threads=0 / nr=0 / decimate=1 / interlaced=0 / bluray_compat=0 / constrained_intra=0 / bframes=3 / b_pyramid=2 / b_adapt=1 / b_bias=0 / direct=3 / weightb=1 / open_gop=0 / weightp=2 / keyint=250 / keyint_min=25 / scenecut=40 / intra_refresh=0 / rc_lookahead=50 / rc=abr / mbtree=1 / bitrate=11500 / ratetol=1.0 / qcomp=0.60 / qpmin=0 / qpmax=69 / qpstep=4 / vbv_maxrate=31250 / vbv_bufsize=31250 / nal_hrd=none / filler=0 / ip_ratio=1.40 / aq=1:1.00
Язык : English
Default : Нет
Forced : Нет

Аудио #1
Идентификатор : 2
Формат : AC-3
Формат/Информация : Audio Coding 3
Расширение режима : CM (complete main)
Параметр Endianness формата : Big
Идентификатор кодека : A_AC3
Продолжительность : 1 ч. 37 м.
Вид битрейта : Постоянный
Битрейт : 192 Кбит/сек
Каналы : 2 канала
Расположение каналов : Front: L R
Частота : 48,0 КГц
Частота кадров : 31,250 кадров/сек (1536 spf)
Метод сжатия : С потерями
Размер потока : 134 Мбайт (1%)
Заголовок : AVO Карцев Петр
Язык : Russian
Default : Нет
Forced : Нет

Аудио #2
Идентификатор : 3
Формат : DTS
Формат/Информация : Digital Theater Systems
Режим : 16
Параметр Endianness формата : Big
Идентификатор кодека : A_DTS
Продолжительность : 1 ч. 37 м.
Вид битрейта : Постоянный
Битрейт : 1509 Кбит/сек
Каналы : 2 канала
Расположение каналов : Front: L R
Частота : 48,0 КГц
Частота кадров : 93,750 кадра/сек (512 spf)
Битовая глубина : 24 бит
Метод сжатия : С потерями
Задержка видео : 11 мс.
Размер потока : 1,03 Гбайт (12%)
Язык : English
Default : Нет
Forced : Нет

Текст
Идентификатор : 4
Формат : UTF-8
Идентификатор кодека : S_TEXT/UTF8
Идентификатор кодека/Информация : UTF-8 Plain Text
Язык : English
Default : Нет
Forced : Нет


_________________
Проголосуй за трекер Открытый торрент трекер - RUS-MEDIA.ORG

Проголосуй Открытый торрент трекер - RUS-MEDIA.ORG


Вернуться к началу
 Профиль Отправить личное сообщение  
 
   Похожие торренты   Автор   Торрент   Размер 
В этой теме нет новых непрочитанных сообщений. Истории квартала / Истории из морга / Tales from the Hood [ужасы, триллер, 1995] HDRip, Avo

salma3

131 | 23

1.45 ГБ

В этой теме нет новых непрочитанных сообщений. Истории ужасов / Tales of Terror [Ужасы, мистика, триллер, 1962] BDRip 720p, Mvo

salma3

27 | 19

3.51 ГБ

В этой теме нет новых непрочитанных сообщений. Байки из склепа: Демон ночи / Tales from the Crypt: Demon Knight [Ужасы, Фантастика, 1995] BDRip-AVC, Mvo

salma3

66 | 8

2.17 ГБ

В этой теме нет новых непрочитанных сообщений. Пророчество / The Prophecy [ужасы, боевик, триллер, 1995] BDRip 1080p, Mvo

salma3

16 | 11

6.94 ГБ

В этой теме нет новых непрочитанных сообщений. Разрушительница / The Demolitionist [ужасы, фантастика, боевик, триллер, 1995] BDRip 1080p, Dvo

salma3

87 | 43

7.04 ГБ

В этой теме нет новых непрочитанных сообщений. Город монстров / Tales of Halloween (Даррен Линн Боусман, Аксель Кэролин, Адам Гираш) [ужасы, 2015] BDRip 1080p, dub [Чистый звук]

Dracon

649 | 58

8.51 ГБ

В этой теме нет новых непрочитанных сообщений. Дикие истории / Relatos salvajes [триллер, драма, комедия, 2014] BDRip 1080p, Dub [Itunes]

salma3

7 | 3

10.34 ГБ


Начать новую тему Ответить на тему  [ 1 сообщение ] 




Для Мосгорсуда, Роскомнадзора и рекламодателей:: mosgorsud-torrent[собачка]yandex.ru
cron