Торрент файл
скачать торрент магнет ссылка Добавлен: 29 апр 2017, 12:46
Размер: 11.55 ГБ
Сидеров: 27
Личеров: 18
Статус: (salma3)
Автор

СообщениеДобавлено: 29 апр 2017, 12:46 

Не в сети
Супермодератор
Аватара пользователя
Дата регистрации:
15 фев 2012, 16:44
Возраст: 28
Спасибо: 6643 / 2146
Сообщения: 45769
Год выхода: 2000
Жанр: ужасы, мистика
Режиссер: Патрик Люссье / Patrick Lussier

В ролях: Джонни Ли Миллер, Джастин Уодделл, Джерард Батлер, Кристофер Пламмер, Дженнифер Эспозито, Локлин Мунро, Омар Эппс, Шон Патрик Томас, Дэнни Мастерсон, Джери Райан, Коллин Фицпатрик

О фильме:
Банда воров, оснащенных по последнему слову техники, проникает в хранилище известного лондонского антиквара Ван Хелсинга. Прихватив добычу, они скрываются из страны… Обеспокоенный Ван Хелсинг отправляется по следам грабителей, а за ним его помощник Саймон, заинтригованный тайной антиквара. Тот, с кем Саймон в итоге сталкивается, превосходит все ожидания! Его могущество безгранично, а деяния — ужасны! Его имя — Дракула. И лишь один человек на Земле знает правду. Но всей правды не знает никто!



Страна: США
Продолжительность: 01:39:02
Перевод: Профессиональный (полное дублирование)
Семпл:

Файл
Кодек: MPEG-4
Качество: BDRemux 1080
Видео: 1920x1080 / 29,970 fps / 16:9 / High Profile 4.1 / 13991 kbps
Звук:
Аудио 1: AC3 / 2.0 / 48 kHz / 192 kbps / 16 bits |Dub, R5|
Аудио 2: AC3 / 5.1 / 48 kHz / 384 kbps / 16 bits |original, c rus DVD|
Аудио 3: DTS-HD Master Audio / 2.0 / 48 kHz / 2122 kbps / 24 bits (DTS Core: 2.0 / 48 kHz / 1510 kbps / 24 bits) |original|
Субтитры: Russian, English

Drakula.2000.2000.Blu-Ray.Remux.(1080p).mkv
Format : Matroska
Format version : Version 2
File size : 11.5 GiB
Duration : 1 h 39 min
Overall bit rate mode : Variable
Overall bit rate : 16.7 Mb/s
Encoded date : UTC 2013-04-24 15:53:26
Writing application : mkvmerge v5.8.0 ('No Sleep / Pillow') built on Sep 2 2012 15:37:04
Writing library : libebml v1.2.3 + libmatroska v1.3.0

Video
ID : 1
Format : AVC
Format/Info : Advanced Video Codec
Format profile : High@L4.1
Format settings, CABAC : Yes
Format settings, ReFrames : 4 frames
Format settings, GOP : M=3, N=25
Muxing mode : Container profile=@0.0
Codec ID : V_MPEG4/ISO/AVC
Duration : 1 h 39 min
Bit rate mode : Variable
Maximum bit rate : 38.0 Mb/s
Width : 1 920 pixels
Height : 1 080 pixels
Display aspect ratio : 16:9
Frame rate mode : Constant
Frame rate : 30.000 FPS
Original frame rate : 29.970 (30000/1001) FPS
Standard : NTSC
Color space : YUV
Chroma subsampling : 4:2:0
Bit depth : 8 bits
Scan type : Interlaced
Scan type, store method : Separated fields
Scan order : Top Field First
Default : Yes
Forced : No
Color range : Limited

Audio #1
ID : 2
Format : AC-3
Format/Info : Audio Coding 3
Mode extension : CM (complete main)
Format settings, Endianness : Big
Codec ID : A_AC3
Duration : 1 h 39 min
Bit rate mode : Constant
Bit rate : 192 kb/s
Channel(s) : 2 channels
Channel positions : Front: L R
Sampling rate : 48.0 kHz
Frame rate : 31.250 FPS (1536 spf)
Bit depth : 16 bits
Compression mode : Lossy
Stream size : 136 MiB (1%)
Title : Dub, R5
Language : Russian
Default : Yes
Forced : No

Audio #2
ID : 3
Format : AC-3
Format/Info : Audio Coding 3
Mode extension : CM (complete main)
Format settings, Endianness : Big
Codec ID : A_AC3
Duration : 1 h 39 min
Bit rate mode : Constant
Bit rate : 384 kb/s
Channel(s) : 6 channels
Channel positions : Front: L C R, Side: L R, LFE
Sampling rate : 48.0 kHz
Frame rate : 31.250 FPS (1536 spf)
Bit depth : 16 bits
Compression mode : Lossy
Stream size : 272 MiB (2%)
Title : Eng c rus DVD
Language : English
Default : No
Forced : No

Audio #3
ID : 4
Format : DTS
Format/Info : Digital Theater Systems
Format profile : MA / Core
Mode : 16
Format settings, Endianness : Big
Codec ID : A_DTS
Duration : 1 h 39 min
Bit rate mode : Variable / Constant
Bit rate : Unknown / 1 509 kb/s
Channel(s) : 2 channels
Channel positions : Front: L R
Sampling rate : 48.0 kHz
Frame rate : 93.750 FPS (512 spf)
Bit depth : 24 bits
Compression mode : Lossless / Lossy
Title : Eng c Bluray
Language : English
Default : No
Forced : No

Text #1
ID : 5
Format : UTF-8
Codec ID : S_TEXT/UTF8
Codec ID/Info : UTF-8 Plain Text
Language : Russian
Default : No
Forced : No

Text #2
ID : 6
Format : UTF-8
Codec ID : S_TEXT/UTF8
Codec ID/Info : UTF-8 Plain Text
Language : English
Default : No
Forced : No

Menu
00:00:00.000 : :Chapter 01
00:05:33.166 : :Chapter 02
00:10:55.254 : :Chapter 03
00:16:30.489 : :Chapter 04
00:20:47.646 : :Chapter 05
00:24:56.962 : :Chapter 06
00:28:48.960 : :Chapter 07
00:34:42.647 : :Chapter 08
00:37:39.023 : :Chapter 09
00:44:32.936 : :Chapter 10
00:50:45.042 : :Chapter 11
00:58:09.953 : :Chapter 12
01:10:03.899 : :Chapter 13
01:17:44.326 : :Chapter 14
01:22:53.902 : :Chapter 15


_________________
Проголосуй за трекер Открытый торрент трекер - RUS-MEDIA.ORG

Проголосуй Открытый торрент трекер - RUS-MEDIA.ORG



реклама партнёра


Вернуться к началу
 Профиль Отправить личное сообщение  
 
   Похожие торренты   Автор   Торрент   Размер 
В этой теме нет новых непрочитанных сообщений. Дракула 2000 / Dracula 2000 [Ужасы, мистика, 2000] BDRip-AVC, Dub

salma3

112 | 26

745.63 МБ

В этой теме нет новых непрочитанных сообщений. Дракула 2000 / Dracula 2000 [ужасы, фэнтези, боевик, триллер, 2000] BDRip 1080p, Dub+Sub

salma3

54 | 14

9.81 ГБ

В этой теме нет новых непрочитанных сообщений. Дракула 2000 / Dracula 2000 [ужасы, фэнтези, боевик, триллер, 2000] BDRip 720p, Dub+Sub

salma3

101 | 8

3.83 ГБ

В этой теме нет новых непрочитанных сообщений. Полицейский 2000 года / TC 2000 [Фантастика, боевик, 1993] BDRemux 1080p, Dvo

salma3

27 | 7

14.35 ГБ

В этой теме нет новых непрочитанных сообщений. Дракула / Dracula Untold (Гари Шор) [ужасы, фэнтези, боевик, драма, военный, 2014] BDRemux 1080p, Dub+Sub [Лицензия]

Dracon

43 | 7

22.26 ГБ

В этой теме нет новых непрочитанных сообщений. Убийства в Черри-Фолс / Cherry Falls [ужасы, триллер, детектив, 2000] BDRemux 1080p, Dvo

salma3

1 | 0

24.32 ГБ

В этой теме нет новых непрочитанных сообщений. Уравнитель 2000 / Equalizer 2000 [фантастика, боевик, приключения, 1987] BDRip 1080p, Avo

salma3

136 | 46

7.79 ГБ


Начать новую тему Ответить на тему  [ 1 сообщение ] 




Для Мосгорсуда, Роскомнадзора и рекламодателей:: mosgorsud-torrent[собачка]yandex.ru