Торрент файл
скачать торрент магнет ссылка Добавлен: 29 апр 2017, 12:23
Размер: 9.41 ГБ
Сидеров: 67
Личеров: 17
Статус: (salma3)
Автор

СообщениеДобавлено: 29 апр 2017, 12:23 

Не в сети
Супермодератор
Аватара пользователя
Дата регистрации:
15 фев 2012, 16:44
Возраст: 28
Спасибо: 7223 / 2147
Сообщения: 67717
Год выхода: 2016
Жанр: Криминал, драма, детектив
Режиссер: Иль Хён Ли

В ролях: Чжон Мин Хван, Дон Вон Кан, Сон Мин Ли, Сон Ун Пак, Ын Су Ким, Чжин Мо Чу (II), Вон Хэ Ким, Пэ Су Чжон, Со Юл Шин, Чжон Хван Пак, Хон Фа Ким, Бён Ок Ким, Чжон Хак Сон, Чон Ын Ли, Чжэ Ён Хан

О фильме:
Прокурор Пён Джэ-ук чтит закон. А так же считает, что если преступник не сознаётся, то надо ему помочь сознаться. В этом деле все средства хороши, и небольшие побои лишними не будут. Вот однажды он так слегка попугал подозреваемого и оставил его на ночь в комнате допросов, а наутро бедолага был уже мёртв. Джэ-ук едет в места не столь отдалённые на 15 лет, но он уверен, что его подставили, и найдет способ восстановить справедливость...



Страна: Южная Корея
Студия: Sanai Pictures
Продолжительность: 02:06:21
Перевод: Любительский двухголосый закадровый

Файл
Кодек: h.264
Качество: BDRip 1080p
Видео: MPEG-4 AVC, 8978 Кбит/с, 1920x800, 23,976 кадр/с
Звук:
Русский (AC3, 2 ch, 192 Кбит/с) / Любительский двухголосый (Храм Дорам)
Корейский (DTS, 6 ch, 1509 Кбит/с)
Субтитры: Английские
Семпл
Автор релиза - Silverok, за BD-Remux спасибо vedigo
Сохранены оригинальные чаптеры как на Blu-ray
---[Information] [06.11.2016 17:01:35] x264 [info]: frame I:1412 Avg QP:14.15 size:206932
---[Information] [06.11.2016 17:01:35] x264 [info]: frame P:41091 Avg QP:16.88 size: 76229
---[Information] [06.11.2016 17:01:35] x264 [info]: frame B:139266 Avg QP:18.86 size: 36390
General
Unique ID : 206542973503455773914287721901370020065 (0x9B62BAD0B8384FC3A42368D6986A90E1)
Complete name : D:uTorrentZhestokiy.prokuror.2016.BDRip.1080p.MediaClub.mkv
Format : Matroska
Format version : Version 4 / Version 2
File size : 9.41 GiB
Duration : 2 h 6 min
Overall bit rate : 10.7 Mb/s
Encoded date : UTC 2017-04-27 14:36:12
Writing application : mkvmerge v10.0.0 ('To Drown In You') 64bit
Writing library : libebml v1.3.4 + libmatroska v1.4.5
Video
ID : 1
Format : AVC
Format/Info : Advanced Video Codec
Format profile : High@L4.1
Format settings, CABAC : Yes
Format settings, ReFrames : 5 frames
Codec ID : V_MPEG4/ISO/AVC
Duration : 2 h 6 min
Bit rate : 8 978 kb/s
Width : 1 920 pixels
Height : 800 pixels
Display aspect ratio : 2.40:1
Frame rate mode : Constant
Frame rate : 23.976 (24000/1001) FPS
Color space : YUV
Chroma subsampling : 4:2:0
Bit depth : 8 bits
Scan type : Progressive
Bits/(Pixel*Frame) : 0.244
Stream size : 7.72 GiB (82%)
Title : BDRip by Silverok
Writing library : x264 core 148 r2638 7599210
Encoding settings : cabac=1 / ref=5 / deblock=1:-3:-3 / analyse=0x3:0x113 / me=umh / subme=10 / psy=1 / psy_rd=1.00:0.10 / mixed_ref=1 / me_range=32 / chroma_me=1 / trellis=2 / 8x8dct=1 / cqm=0 / deadzone=21,11 / fast_pskip=0 / chroma_qp_offset=-3 / threads=12 / lookahead_threads=3 / sliced_threads=0 / nr=0 / decimate=0 / interlaced=0 / bluray_compat=0 / constrained_intra=0 / bframes=12 / b_pyramid=2 / b_adapt=2 / b_bias=0 / direct=3 / weightb=1 / open_gop=0 / weightp=2 / keyint=240 / keyint_min=24 / scenecut=40 / intra_refresh=0 / rc_lookahead=40 / rc=2pass / mbtree=0 / bitrate=8978 / ratetol=1.0 / qcomp=0.60 / qpmin=0 / qpmax=69 / qpstep=4 / cplxblur=20.0 / qblur=0.5 / vbv_maxrate=62500 / vbv_bufsize=78125 / nal_hrd=none / filler=0 / ip_ratio=1.40 / pb_ratio=1.30 / aq=1:1.00
Default : Yes
Forced : No
Audio #1
ID : 2
Format : AC-3
Format/Info : Audio Coding 3
Format settings, Endianness : Big
Codec ID : A_AC3
Duration : 2 h 6 min
Bit rate mode : Constant
Bit rate : 192 kb/s
Channel(s) : 2 channels
Channel positions : Front: L R
Sampling rate : 48.0 kHz
Frame rate : 31.250 FPS (1536 spf)
Bit depth : 16 bits
Compression mode : Lossy
Stream size : 174 MiB (2%)
Title : Любительский двухголосый закадровый (Храм Дорам)
Language : Russian
Service kind : Complete Main
Default : Yes
Forced : No
Audio #2
ID : 3
Format : DTS
Format/Info : Digital Theater Systems
Mode : 16
Format settings, Endianness : Big
Codec ID : A_DTS
Duration : 2 h 6 min
Bit rate mode : Constant
Bit rate : 1 509 kb/s
Channel(s) : 6 channels
Channel positions : Front: L C R, Side: L R, LFE
Sampling rate : 48.0 kHz
Frame rate : 93.750 FPS (512 spf)
Bit depth : 16 bits
Compression mode : Lossy
Stream size : 1.33 GiB (14%)
Language : Korean
Default : No
Forced : No
Text
ID : 4
Format : UTF-8
Codec ID : S_TEXT/UTF8
Codec ID/Info : UTF-8 Plain Text
Language : English
Default : Yes
Forced : No
Menu
00:00:00.000 : en:00:00:00.000
00:05:05.971 : en:00:05:05.971
00:12:58.193 : en:00:12:58.193
00:18:07.126 : en:00:18:07.126
00:28:29.457 : en:00:28:29.457
00:38:31.934 : en:00:38:31.934
00:47:45.737 : en:00:47:45.737
00:55:23.277 : en:00:55:23.277
01:02:25.782 : en:01:02:25.782
01:13:19.353 : en:01:13:19.353
01:18:53.811 : en:01:18:53.811
01:29:52.970 : en:01:29:52.970
01:36:26.572 : en:01:36:26.572
01:45:10.052 : en:01:45:10.052
02:00:19.337 : en:02:00:19.337
02:02:43.521 : en:02:02:43.521

Релиз от: | Silverok


_________________
Проголосуй за трекер Открытый торрент трекер - RUS-MEDIA.ORG

Проголосуй Открытый торрент трекер - RUS-MEDIA.ORG


Вернуться к началу
 Профиль Отправить личное сообщение  
 
   Похожие торренты   Автор   Торрент   Размер 
В этой теме нет новых непрочитанных сообщений. Жестокий прокурор / A Violent Prosecutor / Geomsawejeon [криминал, 2016] BDRemux 1080p, Dvo

salma3

0 | 8

21.94 ГБ

В этой теме нет новых непрочитанных сообщений. Жестокий прокурор / Geomsawejeon [криминал, 2016] HDTVRip, Avo

salma3

81 | 22

1.46 ГБ

В этой теме нет новых непрочитанных сообщений. Самый жестокий год / A Most Violent Year [Драма, криминал, 2014] BDRip 1080p, Avo

salma3

0 | 0

7.76 ГБ

В этой теме нет новых непрочитанных сообщений. Жестокий ручей / Mean Creek [драма, криминал, 2004] WEB-DL 1080p, Dvo

salma3

0 | 0

3.75 ГБ

В этой теме нет новых непрочитанных сообщений. Жестокий полицейский / Violent cop [боевик, триллер, драма, криминал, 1989] BDRip 720p, Dvo+Sub

salma3

71 | 14

6.33 ГБ

В этой теме нет новых непрочитанных сообщений. Жестокий ангел / Святой дьявол / Santa Diabla / 1 сезон 1-140 серии из 140 [триллер, драма, мелодрама, криминал, детектив, 2013] HDTVRip, Mvo [SET]

salma3

6 | 19

76.85 ГБ

В этой теме нет новых непрочитанных сообщений. Невидимый гость / Contratiempo [триллер, криминал, детектив, 2016] BDRip 1080p, Mvo

salma3

2599 | 621

7.62 ГБ


Начать новую тему Ответить на тему  [ 1 сообщение ] 




Для Мосгорсуда, Роскомнадзора и рекламодателей:: mosgorsud-torrent[собачка]yandex.ru
cron