Торрент файл
скачать торрент магнет ссылка Добавлен: 29 апр 2017, 12:07
Размер: 12.37 ГБ
Сидеров: 60
Личеров: 33
Статус: (salma3)
Автор

СообщениеДобавлено: 29 апр 2017, 12:07 

Не в сети
Супермодератор
Аватара пользователя
Дата регистрации:
15 фев 2012, 16:44
Возраст: 29
Спасибо: 7377 / 2147
Сообщения: 75909
Год выхода: 2006
Жанр: Боевик, приключения
Режиссер: Кори Юэнь

В ролях: Джэми Прессли, Холли Вэленс, Сара Картер, Девон Аоки, Наташа Мальте, Эрик Робертс, Мэттью Марсден, Брайан Уайт, Коллин Чоу, Кейн Косуги, Кевин Нэш

О фильме:
Тина, Кристи, Касуми и Хелена отменно владеют азиатскими боевыми искусствами. Особенно их коллег мужского пола впечатляет даже не яркая сексуальность каждой из девушек, а сила, которой пронизана каждая из них. В один прекрасный день соперницы получают приглашение посетить тайное состязание по боевым искусствам под названием "Dead or Alive" ("Живым или мертвым") на одном экзотическом азиатском острове. Приз – 10 млн. долларов. Но деньги для многих бойцов – отнюдь не единственная причина участия в этом крутейшем из турниров: это вопрос престижа, чести и поиска ответов на вопросы.



Страна: США, Германия
Продолжительность: 01:26:37
Перевод: Профессиональный (дублированный)

Файл
Кодек: MPEG-4
Качество: BDRemux 1080
Видео: 1920x1080 (1.33:1), H264 (AVC), High Profile 4.1, 23.976 fps, ~15001 Kbps
Звук:
Аудио 1: Русский: 48 kHz, DTS, 3/2 (L,C,R,l,r) + LFE ch, ~768 kbps
Аудио 2: English: 48 kHz, AC3, 3/2 (L,C,R,l,r) + LFE ch, ~448 kbps
Аудио 3: English: 48 kHz, DTS-HD MA, 3/2 (L,C,R,l,r) + LFE ch, ~4336 kbps
Субтитры: Русские, украинские, английские

Семпл:

DOA.Dead.Or.Alive.2006.1080p.BluRay.H264.DTS-HD.Rus.Eng.mkv
Format : Matroska
Format version : Version 1
File size : 12.4 GiB
Duration : 1 h 26 min
Overall bit rate mode : Variable
Overall bit rate : 20.5 Mb/s
Movie name : DOA: Dead or Alive 2006 1080p BluRay
Encoded date : UTC 2009-04-07 12:59:09
Writing application : mkvmerge v2.4.0 ('Fumbling Towards Ecstasy') built on Oct 11 2008 20:13:15
Writing library : libebml v0.7.7 + libmatroska v0.8.1
Video
ID : 1
Format : AVC
Format/Info : Advanced Video Codec
Format profile : High@L4.1
Format settings, CABAC : Yes
Format settings, ReFrames : 4 frames
Codec ID : V_MPEG4/ISO/AVC
Duration : 1 h 26 min
Bit rate mode : Variable
Maximum bit rate : 30.0 Mb/s
Width : 1 920 pixels
Height : 1 080 pixels
Display aspect ratio : 16:9
Frame rate mode : Constant
Frame rate : 23.976 (24000/1001) FPS
Standard : NTSC
Color space : YUV
Chroma subsampling : 4:2:0
Bit depth : 8 bits
Scan type : Progressive
Title : ViDEO
Language : English
Default : Yes
Forced : No
Color range : Limited
Color primaries : BT.709
Transfer characteristics : BT.709
Matrix coefficients : BT.709
Audio #1
ID : 2
Format : DTS
Format/Info : Digital Theater Systems
Mode : 16
Format settings, Endianness : Big
Codec ID : A_DTS
Duration : 1 h 26 min
Bit rate mode : Constant
Bit rate : 755 kb/s
Channel(s) : 6 channels
Channel positions : Front: L C R, Side: L R, LFE
Sampling rate : 48.0 kHz
Frame rate : 93.750 FPS (512 spf)
Bit depth : 24 bits
Compression mode : Lossy
Stream size : 465 MiB (4%)
Title : DTS 5.1 768 Kbps
Language : Russian
Default : Yes
Forced : No
Audio #2
ID : 3
Format : AC-3
Format/Info : Audio Coding 3
Mode extension : CM (complete main)
Format settings, Endianness : Big
Codec ID : A_AC3
Duration : 1 h 26 min
Bit rate mode : Constant
Bit rate : 448 kb/s
Channel(s) : 6 channels
Channel positions : Front: L C R, Side: L R, LFE
Sampling rate : 48.0 kHz
Frame rate : 31.250 FPS (1536 spf)
Bit depth : 16 bits
Compression mode : Lossy
Stream size : 276 MiB (2%)
Title : AC3 5.1 448 Kbps
Language : English
Default : No
Forced : No
Audio #3
ID : 4
Format : DTS
Format/Info : Digital Theater Systems
Format profile : MA / Core
Mode : 16
Format settings, Endianness : Big
Codec ID : A_DTS
Duration : 1 h 26 min
Bit rate mode : Variable / Constant
Bit rate : Unknown / 1 509 kb/s
Channel(s) : 6 channels
Channel positions : Front: L C R, Side: L R, LFE
Sampling rate : 48.0 kHz
Frame rate : 93.750 FPS (512 spf)
Bit depth : 24 bits
Compression mode : Lossless / Lossy
Title : DTS-HD MA 5.1 4336 Kbps
Language : English
Default : No
Forced : No
Text #1
ID : 5
Format : UTF-8
Codec ID : S_TEXT/UTF8
Codec ID/Info : UTF-8 Plain Text
Language : Russian
Default : No
Forced : No
Text #2
ID : 6
Format : UTF-8
Codec ID : S_TEXT/UTF8
Codec ID/Info : UTF-8 Plain Text
Language : Ukrainian
Default : No
Forced : No
Text #3
ID : 7
Format : UTF-8
Codec ID : S_TEXT/UTF8
Codec ID/Info : UTF-8 Plain Text
Language : English
Default : No
Forced : No



_________________
Проголосуй за трекер Открытый торрент трекер - RUS-MEDIA.ORG

Проголосуй Открытый торрент трекер - RUS-MEDIA.ORG


Вернуться к началу
 Профиль Отправить личное сообщение  
 
   Похожие торренты   Автор   Торрент   Размер 
В этой теме нет новых непрочитанных сообщений. Nat Geo Wild: Живой или мертвый / Dead or Alive [01-03] (2012) HDTVRip | P1

salma3

0 | 0

1.89 ГБ

В этой теме нет новых непрочитанных сообщений. Nat Geo Wild: Живой или мертвый / Dead or Alive [01-03] (2012) HDTVRip-AVC | P1

salma3

0 | 0

2.54 ГБ

В этой теме нет новых непрочитанных сообщений. Nat Geo Wild: Живой или мертвый / Dead or Alive [01-03] (2012) HDTV 1080i | P1

salma3

0 | 0

6.78 ГБ

В этой теме нет новых непрочитанных сообщений. Живым или мертвым / Dead or Alive: Hanzaisha [криминал, драма, триллер, 1999] BDRemux 1080p, Mvo

salma3

5 | 12

21.47 ГБ

В этой теме нет новых непрочитанных сообщений. Быстрый и мертвый / The Quick and the Dead [вестерн, боевик, триллер, 1995] Blu-ray CEE 1080p, Dub+Sub

salma3

35 | 64

30.91 ГБ

В этой теме нет новых непрочитанных сообщений. Восстание душ: Бунт мертвецов / Shadow: Dead Riot [Ужасы, боевик, 2006] BDRemux 1080p, Mvo+Sub

salma3

36 | 28

14.57 ГБ

В этой теме нет новых непрочитанных сообщений. Взять живым или мертвым / Wanted: Dead or Alive [боевик, триллер, драма, криминал, 1987] BDRip 1080p, Mvo

salma3

59 | 14

10.82 ГБ


Начать новую тему Ответить на тему  [ 1 сообщение ] 




Для Мосгорсуда, Роскомнадзора и рекламодателей:: mosgorsud-torrent[собачка]yandex.ru
cron