Торрент файл
скачать торрент магнет ссылка Добавлен: 28 апр 2017, 13:00
Размер: 12.53 ГБ
Сидеров: 104
Личеров: 41
Статус: (salma3)
Автор

СообщениеДобавлено: 28 апр 2017, 13:00 

Не в сети
Супермодератор
Аватара пользователя
Дата регистрации:
15 фев 2012, 16:44
Возраст: 28
Спасибо: 7163 / 2147
Сообщения: 61819
Год выхода: 2010
Жанр: боевик, мелодрама, комедия
Режиссер: Джеймс Мэнголд

В ролях: Том Круз, Кэмерон Диаз, Питер Сарсгаард, Хорди Молья, Виола Дэвис, Пол Дано, Фальк Хеншел, Марк Блукас, Ленни Лофтин, Мэгги Грэйс

О фильме:
Случайная встреча в аэропорту одинокой женщины Джун Хэвенс и обаятельного агента Миллера приводит к тому, что им приходится вместе колесить по всему свету, спасаясь от наемных убийц и пытаясь уберечь от коварных злодеев мощную батарею, которая является уникальным источником энергии. Попадая в бесчисленные передряги и постоянно находясь на волоске от смерти, Джун все время мучается в догадках, кто же на самом деле ее неугомонный спутник — спаситель человечества, предатель или просто-напросто сумасшедший…



Страна: США
Продолжительность: 01:57:07
Перевод: Профессиональный (дублированный) Blu-ray EUR + Авторский (одноголосый, закадровый) Д.Есарев + Авторский (одноголосый, закадровый) А.Гаврилов + Авторский (одноголосый, закадровый) М.Иванов

Файл
Формат: Matroska
Качество: BDRip 720p
Видео: 1280x532 at 23.976 fps, x264@L4.1, ~9571 kbps avg
Аудио#1: Russian: 48 kHz, DTS, 3/2 (L,C,R,l,r) + LFE ch, ~755 kbps | Дубляж, Blu-ray EUR
Аудио#2: Russian: 48 kHz, DTS, 3/2 (L,C,R,l,r) + LFE ch, ~1509 kbps | Авторский, Д.Есарев
Аудио#3: Russian: 48 kHz, DTS, 3/2 (L,C,R,l,r) + LFE ch, ~1509 kbps | Авторский, А.Гаврилов
Аудио#4: Russian: 48 kHz, AC3, 3/2 (L,C,R,l,r) + LFE ch, ~448 kbps | Авторский, М.Иванов
Аудио#5: English: 48 kHz, DTS, 3/2 (L,C,R,l,r) + LFE ch, ~1509 kbps
Cубтитры: Russian, English
***Сохранены оригинальные главы как на Blu-ray.
***За голос А.Гаврилова спасибо: Dunhill. Работа со звуком Diablo.
***За перевод М.Иванова спасибо: _denis_100.
***Перевод Д.Есарева доступен благодаря ресурсу "Переулок Переводмана". Заказ перевода: napaHouk. Работа со звуком mihaildns.
***Видеоряд - HDv0T, сборка - igrok2012.

Общее
Уникальный идентификатор : 172220628453466590317280655851564814682 (0x81907C8DC0A5E1A4A82A83D2863BD15A)
Полное имя : Knight.and.Day.2010.Ex.Cut.720p.BluRay.4xRus.Eng.x264.mkv
Формат : Matroska
Версия формата : Version 2
Размер файла : 12,5 Гбайт
Продолжительность : 1 ч. 57 м.
Общий поток : 15,3 Мбит/сек
Название фильма : Knight and Day (2010) [Extended Cut] | igrok2012
Дата кодирования : UTC 2017-04-26 14:15:45
Программа кодирования : mkvmerge v11.0.0 ('Alive') 64bit
Библиотека кодирования : libebml v1.3.4 + libmatroska v1.4.5
Attachment : Yes
Видео
Идентификатор : 1
Формат : AVC
Формат/Информация : Advanced Video Codec
Профиль формата : High@L4.1
Параметр CABAC формата : Да
Параметр ReFrames формата : 11 кадров
Идентификатор кодека : V_MPEG4/ISO/AVC
Продолжительность : 1 ч. 57 м.
Битрейт : 9571 Кбит/сек
Ширина : 1280 пикселей
Высота : 532 пикселя
Соотношение сторон : 2,40:1
Режим частоты кадров : Постоянный
Частота кадров : 23,976 кадра/сек
Цветовое пространство : YUV
Субдискретизация насыщенности : 4:2:0
Битовая глубина : 8 бит
Тип развёртки : Прогрессивная
Бит/(Пиксели*Кадры) : 0.586
Размер потока : 7,58 Гбайт (61%)
Заголовок : Encode by HDv0T sealex
Библиотека кодирования : x264 core 125 r2208kMod d9d2288
Настройки программы : cabac=1 / ref=11 / deblock=1:-3:-3 / analyse=0x3:0x113 / me=tesa / subme=11 / psy=1 / fade_compensate=0.00 / psy_rd=1.00:0.01 / mixed_ref=1 / me_range=16 / chroma_me=1 / trellis=2 / 8x8dct=1 / cqm=0 / deadzone=21,11 / fast_pskip=0 / chroma_qp_offset=-3 / threads=6 / lookahead_threads=1 / sliced_threads=0 / nr=0 / decimate=0 / interlaced=0 / bluray_compat=0 / constrained_intra=0 / bframes=6 / b_pyramid=2 / b_adapt=0 / b_bias=0 / direct=3 / weightb=1 / open_gop=0 / weightp=2 / keyint=250 / keyint_min=23 / scenecut=40 / intra_refresh=0 / rc_lookahead=40 / rc=2pass / mbtree=1 / bitrate=9571 / ratetol=1.0 / qcomp=0.70 / qpmin=0 / qpmax=69 / qpstep=4 / cplxblur=20.0 / qblur=0.5 / ip_ratio=1.40 / aq=3:0.70 / zones=161362,168481,b=0.3
Язык : English
Default : Да
Forced : Нет
Аудио #1
Идентификатор : 2
Формат : DTS
Формат/Информация : Digital Theater Systems
Режим : 16
Параметр Endianness формата : Big
Идентификатор кодека : A_DTS
Продолжительность : 1 ч. 57 м.
Вид битрейта : Постоянный
Битрейт : 768 Кбит/сек
Каналы : 6 каналов
Расположение каналов : Front: L C R, Side: L R, LFE
Частота : 48,0 КГц
Битовая глубина : 24 бит
Метод сжатия : С потерями
Размер потока : 643 Мбайт (5%)
Заголовок : Дубляж
Язык : Russian
Default : Нет
Forced : Нет
Аудио #2
Идентификатор : 3
Формат : DTS
Формат/Информация : Digital Theater Systems
Режим : 16
Параметр Endianness формата : Big
Идентификатор кодека : A_DTS
Продолжительность : 1 ч. 57 м.
Вид битрейта : Постоянный
Битрейт : 1509 Кбит/сек
Каналы : 6 каналов
Расположение каналов : Front: L C R, Side: L R, LFE
Частота : 48,0 КГц
Битовая глубина : 24 бит
Метод сжатия : С потерями
Размер потока : 1,23 Гбайт (10%)
Заголовок : Одноголосый закадровый, Д. Есарев
Язык : Russian
Default : Нет
Forced : Нет
Аудио #3
Идентификатор : 4
Формат : DTS
Формат/Информация : Digital Theater Systems
Режим : 16
Параметр Endianness формата : Big
Идентификатор кодека : A_DTS
Продолжительность : 1 ч. 57 м.
Вид битрейта : Постоянный
Битрейт : 1509 Кбит/сек
Каналы : 6 каналов
Расположение каналов : Front: L C R, Side: L R, LFE
Частота : 48,0 КГц
Битовая глубина : 24 бит
Метод сжатия : С потерями
Размер потока : 1,23 Гбайт (10%)
Заголовок : Одноголосый закадровый, А. Гаврилов
Язык : Russian
Default : Нет
Forced : Нет
Аудио #4
Идентификатор : 5
Формат : AC-3
Формат/Информация : Audio Coding 3
Расширение режима : CM (complete main)
Параметр Endianness формата : Big
Идентификатор кодека : A_AC3
Продолжительность : 1 ч. 57 м.
Вид битрейта : Постоянный
Битрейт : 448 Кбит/сек
Каналы : 6 каналов
Расположение каналов : Front: L C R, Side: L R, LFE
Частота : 48,0 КГц
Битовая глубина : 16 бит
Метод сжатия : С потерями
Размер потока : 375 Мбайт (3%)
Заголовок : Одноголосый закадровый, М. Иванов
Язык : Russian
Default : Нет
Forced : Нет
Аудио #5
Идентификатор : 6
Формат : DTS
Формат/Информация : Digital Theater Systems
Режим : 16
Параметр Endianness формата : Big
Идентификатор кодека : A_DTS
Продолжительность : 1 ч. 57 м.
Вид битрейта : Постоянный
Битрейт : 1509 Кбит/сек
Каналы : 6 каналов
Расположение каналов : Front: L C R, Side: L R, LFE
Частота : 48,0 КГц
Битовая глубина : 24 бит
Метод сжатия : С потерями
Размер потока : 1,23 Гбайт (10%)
Язык : English
Default : Нет
Forced : Нет
Текст #1
Идентификатор : 7
Формат : UTF-8
Идентификатор кодека : S_TEXT/UTF8
Идентификатор кодека/Информация : UTF-8 Plain Text
Язык : Russian
Default : Нет
Forced : Нет
Текст #2
Идентификатор : 8
Формат : UTF-8
Идентификатор кодека : S_TEXT/UTF8
Идентификатор кодека/Информация : UTF-8 Plain Text
Язык : English
Default : Нет
Forced : Нет
Меню
00:00:00.000 : en:Chapter 1
00:04:52.083 : en:Chapter 2
00:07:05.425 : en:Chapter 3
00:11:11.629 : en:Chapter 4
00:13:45.033 : en:Chapter 5
00:18:34.864 : en:Chapter 6
00:20:58.132 : en:Chapter 7
00:24:22.628 : en:Chapter 8
00:32:58.977 : en:Chapter 9
00:38:00.987 : en:Chapter 10
00:41:05.963 : en:Chapter 11
00:45:46.494 : en:Chapter 12
00:52:18.969 : en:Chapter 13
00:56:14.329 : en:Chapter 14
00:59:15.552 : en:Chapter 15
01:02:27.786 : en:Chapter 16
01:06:50.423 : en:Chapter 17
01:13:29.280 : en:Chapter 18
01:17:45.703 : en:Chapter 19
01:23:31.381 : en:Chapter 20
01:25:51.396 : en:Chapter 21
01:30:08.278 : en:Chapter 22
01:34:34.419 : en:Chapter 23
01:37:50.031 : en:Chapter 24
01:42:34.982 : en:Chapter 25
01:45:25.736 : en:Chapter 26
01:48:14.530 : en:Chapter 27
01:51:51.204 : en:Chapter 28


_________________
Проголосуй за трекер Открытый торрент трекер - RUS-MEDIA.ORG

Проголосуй Открытый торрент трекер - RUS-MEDIA.ORG


Вернуться к началу
 Профиль Отправить личное сообщение  
 
   Похожие торренты   Автор   Торрент   Размер 
В этой теме нет новых непрочитанных сообщений. Рыцарь дня / Knight and Day [боевик, мелодрама, комедия, 2010] BDRip 720p, Dub [Extended Cut]

salma3

1 | 46

5.46 ГБ

В этой теме нет новых непрочитанных сообщений. Рыцарь кубков / Knight of Cups [драма, мелодрама, 2015] BDRip 720p, Mvo

salma3

317 | 69

6.48 ГБ

В этой теме нет новых непрочитанных сообщений. Первый рыцарь / First Knight [Боевик, триллер, мелодрама, приключения, 1995] BDRip 1080p, Dub+4Mvo+Dvo+Avo+Sub

salma3

17 | 41

16.02 ГБ

В этой теме нет новых непрочитанных сообщений. Рыцарь кубков / Knight of Cups (Терренс Малик) [2015, драма, мелодрама, BDRip 720p | Parovoz Production] dvo

Nickolas3435

617 | 13

4.74 ГБ

В этой теме нет новых непрочитанных сообщений. Трансформеры: Последний рыцарь / Transformers: The Last Knight [фантастика, боевик, триллер, 2017] BDRip 720p, Dub+Sub [Лицензия]

salma3

172 | 26

8.41 ГБ

В этой теме нет новых непрочитанных сообщений. Первый рыцарь / First Knight [боевик, триллер, мелодрама, 1995] HDRip, Dub [Лицензия]

salma3

37 | 13

1.45 ГБ

В этой теме нет новых непрочитанных сообщений. История рыцаря / A Knight's Tale [Боевик, мелодрама, комедия, 2001] BDRip 720p, Dub

salma3

18 | 16

7.75 ГБ


Начать новую тему Ответить на тему  [ 1 сообщение ] 




Для Мосгорсуда, Роскомнадзора и рекламодателей:: mosgorsud-torrent[собачка]yandex.ru
cron