Торрент файл
скачать торрент магнет ссылка Добавлен: 25 апр 2017, 03:54
Размер: 9.3 ГБ
Сидеров: 107
Личеров: 54
Статус: (salma3)
Автор

СообщениеДобавлено: 25 апр 2017, 03:54 

Не в сети
Супермодератор
Аватара пользователя
Дата регистрации:
15 фев 2012, 16:44
Возраст: 28
Спасибо: 7199 / 2147
Сообщения: 64840
Год выхода: 1995
Жанр: драма, комедия
Режиссер: Сидни Поллак

В ролях: Харрисон Форд, Джулия Ормонд, Грег Киннир, Нэнси Марчанд, Джон Вуд, Фанни Ардан, Ричард Кренна, Энджи Дикинсон, Лорен Холли, Дэна Айви

О фильме: В семье Лэраби предстоит важное событие — свадьба младшего брата. Приданное невесты позволит братьям стать монополистами на рынке коммуникаций. Но все эти планы рушатся, когда из Парижа возвращается красавица Сабрина — дочь шофера семьи, ставшая супермоделью.



Страна: Германия, США
Продолжительность: 02:07:18
Перевод: Профессиональный (многоголосый, закадровый) ТВ Центр + Профессиональный (многоголосый, закадровый) РТР + Профессиональный (двухголосый, закадровый) Гемини + Профессиональный (двухголосый, закадровый) + Авторский (одноголосый, закадровый) С.Визгунов + Авторский (одноголосый, закадровый) В.Горчаков

Файл
Формат: Matroska
Качество: BDRip 720p
Видео: 1280x720 at 23.976 fps, x264@L4.1, ~8600 kbps
Аудио#1: Russian: 48 kHz, AC3 Dolby Digital, 2/0 (L,R) ch, ~192 kbps | Многоголосый закадровый, ТВ Центр
Аудио#2: Russian: 48 kHz, AC3 Dolby Digital, 2/0 (L,R) ch, ~192 kbps | Многоголосый закадровый, РТР
Аудио#3: Russian: 48 kHz, AC3 Dolby Digital, 2/0 (L,R) ch, ~192 kbps | Двухголосый закадровый, Гемини
Аудио#4: Russian: 48 kHz, AC3 Dolby Digital, 2/0 (L,R) ch, ~192 kbps | Двухголосый закадровый
Аудио#5: Russian: 48 kHz, AC3 Dolby Digital, 3/2 (L,C,R,l,r) + LFE ch, ~448 kbps | Авторский, С.Визгунов
Аудио#6: Russian: 48 kHz, AC3 Dolby Digital, 2/0 (L,R) ch, ~192 kbps | Авторский, В.Горчаков
Аудио#7: English: 48 kHz, AC3 Dolby Digital, 3/2 (L,C,R,l,r) + LFE ch, ~448 kbps
Cубтитры: Russian, English (Full, SDH)

***Сохранены оригинальные главы как на Blu-ray.
***За аудиодорожки спасибо форуму HD AVO и всем причастным к их появлению.
***Видеоряд - IDE, сборка - igrok2012.

[*]Роль Дэвида была предложена Тому Крузу, а роль Сабрины — Вайноне Райдер. Но в итоге этих персонажей сыграли соответственно Грег Киннер и Джулия Ормонд.
Общее
Уникальный идентификатор : 208987008964928477316555071058831679785 (0x9D396F1124E29FC1AF3AC04396532129)
Полное имя : Sabrina.1995.720p.BluRay.6xRus.Eng.x264.mkv
Формат : Matroska
Версия формата : Version 2
Размер файла : 9,30 Гбайт
Продолжительность : 2 ч. 7 м.
Общий поток : 10,5 Мбит/сек
Название фильма : Sabrina (1995) | igrok2012
Дата кодирования : UTC 2017-04-22 14:37:07
Программа кодирования : mkvmerge v10.0.0 ('To Drown In You') 64bit
Библиотека кодирования : libebml v1.3.4 + libmatroska v1.4.5
Attachment : Yes

Видео
Идентификатор : 1
Формат : AVC
Формат/Информация : Advanced Video Codec
Профиль формата : High@L4.1
Параметр CABAC формата : Да
Параметр ReFrames формата : 9 кадров
Идентификатор кодека : V_MPEG4/ISO/AVC
Продолжительность : 2 ч. 7 м.
Битрейт : 8600 Кбит/сек
Ширина : 1280 пикселей
Высота : 720 пикселей
Соотношение сторон : 16:9
Режим частоты кадров : Постоянный
Частота кадров : 23,976 кадра/сек
Цветовое пространство : YUV
Субдискретизация насыщенности : 4:2:0
Битовая глубина : 8 бит
Тип развёртки : Прогрессивная
Бит/(Пиксели*Кадры) : 0.389
Размер потока : 7,46 Гбайт (80%)
Заголовок : Encode by IDE
Библиотека кодирования : x264 core 148 r2705 3f5ed56
Настройки программы : cabac=1 / ref=9 / deblock=1:-3:-3 / analyse=0x3:0x133 / me=tesa / subme=11 / psy=1 / psy_rd=1.05:0.00 / mixed_ref=1 / me_range=24 / chroma_me=1 / trellis=2 / 8x8dct=1 / cqm=0 / deadzone=21,11 / fast_pskip=0 / chroma_qp_offset=-2 / threads=12 / lookahead_threads=3 / sliced_threads=0 / slices=4 / nr=0 / decimate=0 / interlaced=0 / bluray_compat=0 / constrained_intra=0 / bframes=10 / b_pyramid=2 / b_adapt=2 / b_bias=0 / direct=3 / weightb=1 / open_gop=0 / weightp=2 / keyint=250 / keyint_min=23 / scenecut=40 / intra_refresh=0 / rc_lookahead=40 / rc=2pass / mbtree=0 / bitrate=8600 / ratetol=1.0 / qcomp=0.60 / qpmin=0 / qpmax=51 / qpstep=4 / cplxblur=20.0 / qblur=0.5 / vbv_maxrate=50000 / vbv_bufsize=62500 / nal_hrd=none / filler=0 / ip_ratio=1.35 / pb_ratio=1.30 / aq=3:0.60 / zones=1,956,b=1.4
Язык : English
Default : Да
Forced : Нет
Коэффициенты матрицы : BT.709

Аудио #1
Идентификатор : 2
Формат : AC-3
Формат/Информация : Audio Coding 3
Расширение режима : CM (complete main)
Параметр Endianness формата : Big
Идентификатор кодека : A_AC3
Продолжительность : 2 ч. 7 м.
Вид битрейта : Постоянный
Битрейт : 192 Кбит/сек
Каналы : 2 канала
Расположение каналов : Front: L R
Частота : 48,0 КГц
Битовая глубина : 16 бит
Метод сжатия : С потерями
Размер потока : 175 Мбайт (2%)
Заголовок : MVO, ТВ Центр
Язык : Russian
Default : Да
Forced : Нет

Аудио #2
Идентификатор : 3
Формат : AC-3
Формат/Информация : Audio Coding 3
Расширение режима : CM (complete main)
Параметр Endianness формата : Big
Идентификатор кодека : A_AC3
Продолжительность : 2 ч. 7 м.
Вид битрейта : Постоянный
Битрейт : 192 Кбит/сек
Каналы : 2 канала
Расположение каналов : Front: L R
Частота : 48,0 КГц
Битовая глубина : 16 бит
Метод сжатия : С потерями
Размер потока : 175 Мбайт (2%)
Заголовок : MVO, РТР
Язык : Russian
Default : Нет
Forced : Нет

Аудио #3
Идентификатор : 4
Формат : AC-3
Формат/Информация : Audio Coding 3
Расширение режима : CM (complete main)
Параметр Endianness формата : Big
Идентификатор кодека : A_AC3
Продолжительность : 2 ч. 7 м.
Вид битрейта : Постоянный
Битрейт : 192 Кбит/сек
Каналы : 2 канала
Расположение каналов : Front: L R
Частота : 48,0 КГц
Битовая глубина : 16 бит
Метод сжатия : С потерями
Размер потока : 175 Мбайт (2%)
Заголовок : DVO, Гемини
Язык : Russian
Default : Нет
Forced : Нет

Аудио #4
Идентификатор : 5
Формат : AC-3
Формат/Информация : Audio Coding 3
Расширение режима : CM (complete main)
Параметр Endianness формата : Big
Идентификатор кодека : A_AC3
Продолжительность : 2 ч. 7 м.
Вид битрейта : Постоянный
Битрейт : 192 Кбит/сек
Каналы : 2 канала
Расположение каналов : Front: L R
Частота : 48,0 КГц
Битовая глубина : 16 бит
Метод сжатия : С потерями
Размер потока : 175 Мбайт (2%)
Заголовок : DVO
Язык : Russian
Default : Нет
Forced : Нет

Аудио #5
Идентификатор : 6
Формат : AC-3
Формат/Информация : Audio Coding 3
Расширение режима : CM (complete main)
Параметр Endianness формата : Big
Идентификатор кодека : A_AC3
Продолжительность : 2 ч. 7 м.
Вид битрейта : Постоянный
Битрейт : 448 Кбит/сек
Каналы : 6 каналов
Расположение каналов : Front: L C R, Side: L R, LFE
Частота : 48,0 КГц
Битовая глубина : 16 бит
Метод сжатия : С потерями
Размер потока : 408 Мбайт (4%)
Заголовок : AVO, С. Визгунов
Язык : Russian
Default : Нет
Forced : Нет

Аудио #6
Идентификатор : 7
Формат : AC-3
Формат/Информация : Audio Coding 3
Расширение режима : CM (complete main)
Параметр Endianness формата : Big
Идентификатор кодека : A_AC3
Продолжительность : 2 ч. 7 м.
Вид битрейта : Постоянный
Битрейт : 192 Кбит/сек
Каналы : 2 канала
Расположение каналов : Front: L R
Частота : 48,0 КГц
Битовая глубина : 16 бит
Метод сжатия : С потерями
Размер потока : 175 Мбайт (2%)
Заголовок : AVO, В. Горчаков
Язык : Russian
Default : Нет
Forced : Нет

Аудио #7
Идентификатор : 8
Формат : AC-3
Формат/Информация : Audio Coding 3
Расширение режима : CM (complete main)
Параметр Endianness формата : Big
Идентификатор кодека : A_AC3
Продолжительность : 2 ч. 7 м.
Вид битрейта : Постоянный
Битрейт : 448 Кбит/сек
Каналы : 6 каналов
Расположение каналов : Front: L C R, Side: L R, LFE
Частота : 48,0 КГц
Битовая глубина : 16 бит
Метод сжатия : С потерями
Размер потока : 408 Мбайт (4%)
Язык : English
Default : Нет
Forced : Нет

Текст #1
Идентификатор : 9
Формат : UTF-8
Идентификатор кодека : S_TEXT/UTF8
Идентификатор кодека/Информация : UTF-8 Plain Text
Язык : Russian
Default : Нет
Forced : Нет

Текст #2
Идентификатор : 10
Формат : UTF-8
Идентификатор кодека : S_TEXT/UTF8
Идентификатор кодека/Информация : UTF-8 Plain Text
Язык : English
Default : Нет
Forced : Нет

Текст #3
Идентификатор : 11
Формат : UTF-8
Идентификатор кодека : S_TEXT/UTF8
Идентификатор кодека/Информация : UTF-8 Plain Text
Заголовок : SDH
Язык : English
Default : Нет
Forced : Нет

Меню
00:00:00.000 : en:Chapter 1
00:11:26.269 : en:Chapter 2
00:21:52.186 : en:Chapter 3
00:36:16.257 : en:Chapter 4
00:50:35.950 : en:Chapter 5
00:58:29.631 : en:Chapter 6
01:08:38.990 : en:Chapter 7
01:20:12.266 : en:Chapter 8
01:31:08.088 : en:Chapter 9
01:39:44.937 : en:Chapter 10
01:48:29.920 : en:Chapter 11
01:58:07.831 : en:Chapter 12


_________________
Проголосуй за трекер Открытый торрент трекер - RUS-MEDIA.ORG

Проголосуй Открытый торрент трекер - RUS-MEDIA.ORG


Вернуться к началу
 Профиль Отправить личное сообщение  
 
   Похожие торренты   Автор   Торрент   Размер 
В этой теме нет новых непрочитанных сообщений. Сабрина / Sabrina [драма, комедия, 1995] BDRip 720p, Mvo

salma3

30 | 16

9.64 ГБ

В этой теме нет новых непрочитанных сообщений. Сабрина / Sabrina [Драма, мелодрама, комедия, 1995] BDRemux 1080p, Mvo

salma3

12 | 16

31.75 ГБ

В этой теме нет новых непрочитанных сообщений. Sabrina - Sabrina, 19ans, jolie marocaine coquine! (2017) HD 1080p

salma3

0 | 0

1.62 ГБ

В этой теме нет новых непрочитанных сообщений. С унынием в лице / Blue in the Face [комедия, 1995] BDRip 720p, Mvo

salma3

16 | 7

3.73 ГБ

В этой теме нет новых непрочитанных сообщений. Майор Пэйн / Major Payne [комедия, 1995] BDRip 720p, Mvo+Dvo+Avo+Sub

salma3

90 | 31

8.06 ГБ

В этой теме нет новых непрочитанных сообщений. Мальчишник наоборот / Live Nude Girls [Комедия, 1995] BDRip 720p, Dvo

salma3

26 | 9

3.99 ГБ

В этой теме нет новых непрочитанных сообщений. Старые ворчуны разбушевались / Grumpier Old Men [мелодрама, комедия, 1995] BDRip 720p, Dub+Dvo+Avo+Sub

salma3

49 | 12

4.21 ГБ


Начать новую тему Ответить на тему  [ 1 сообщение ] 




Для Мосгорсуда, Роскомнадзора и рекламодателей:: mosgorsud-torrent[собачка]yandex.ru
cron