Торрент файл
скачать торрент магнет ссылка Добавлен: 23 апр 2017, 20:49
Размер: 6.08 ГБ
Сидеров: 100
Личеров: 31
Статус: (salma3)
Автор

СообщениеДобавлено: 23 апр 2017, 20:49 

Не в сети
Супермодератор
Аватара пользователя
Дата регистрации:
15 фев 2012, 16:44
Возраст: 28
Спасибо: 7205 / 2147
Сообщения: 65464
Год выхода: 2005
Жанр: ужасы, фантастика, триллер
Режиссер: Билли О`Брайэн

В ролях: Эсси Дэвис, Шон Харрис, Марчел Юреш, Криспин Леттс, Джон Линч, Рут Негга, Стэнли Таунсенд, ...

О фильме: Ирландия. Глубинка. Заброшенная ферма Дена Рейли — обрушающиеся здания, полный упадок. Ден еле сводит концы с концами. Он в крайнем состоянии и соглашается принять участие в генетическом эксперименте, разрешает провести тесты на своем рогатом скоте местной лаборатории биотехнологии… Эксперимент дает сбой и пять человек, находящиеся на ферме, становятся невольными участниками и заложниками ситуации, неспособными избежать происходящего. 24 часа изоляции…



Страна: Великобритания, Ирландия, США
Продолжительность: 01:34:28
Перевод: Профессиональный (двуголосый, закадровый) R5

Кодек: x264
Качество: BDRip 1080p
Видео: 1908x816, 8000 kbps, 23,976 fps
Аудио #1: AC-3, 6 ch, 448 kbps (Rus) - DVO R5
Аудио #2: DTS, 6 ch, 768 kbps (Eng)
Субтитры: нет
За исходник спасибо - arxivariys
x264 [info]: frame I:939 Avg QP:12.92 size:133748
x264 [info]: frame P:31367 Avg QP:15.49 size: 66092
x264 [info]: frame B:103595 Avg QP:17.63 size: 33476
x264 [info]: consecutive B-frames: 3.1% 4.0% 10.0% 19.4% 10.7% 39.8% 7.9% 2.0% 1.2% 1.1% 0.8%
Общее
Уникальный идентификатор : 186205635272891888626070713508531242881 (0x8C15E69FFA605E749629DFAFDD5B8781)
Полное имя : Изоляция (Isolation) 2005 BDRip 1080p.mkv
Формат : Matroska
Версия формата : Version 2
Размер файла : 6,08 Гбайт
Продолжительность : 1 ч. 34 м.
Общий поток : 9216 Кбит/сек
Дата кодирования : UTC 2017-04-20 10:46:04
Программа кодирования : mkvmerge v4.0.0 ('The Stars were mine') сборка от Jun 6 2010 16:18:42
Библиотека кодирования : libebml v1.0.0 + libmatroska v1.0.0
Видео
Идентификатор : 1
Формат : AVC
Формат/Информация : Advanced Video Codec
Профиль формата : High@L4.1
Параметр CABAC формата : Да
Параметр ReFrames формата : 5 кадров
Идентификатор кодека : V_MPEG4/ISO/AVC
Продолжительность : 1 ч. 34 м.
Битрейт : 8000 Кбит/сек
Ширина : 1908 пикселей
Высота : 816 пикселей
Соотношение сторон : 2,35:1
Режим частоты кадров : Постоянный
Частота кадров : 23,976 (24000/1001) кадра/сек
Цветовое пространство : YUV
Субдискретизация насыщенности : 4:2:0
Битовая глубина : 8 бит
Тип развёртки : Прогрессивная
Бит/(Пиксели*Кадры) : 0.214
Размер потока : 5,16 Гбайт (85%)
Библиотека кодирования : x264 core 146 r2538 121396c
Настройки программы : cabac=1 / ref=5 / deblock=1:-3:-3 / analyse=0x3:0x133 / me=umh / subme=11 / psy=1 / psy_rd=1.00:0.00 / mixed_ref=1 / me_range=32 / chroma_me=1 / trellis=2 / 8x8dct=1 / cqm=0 / deadzone=21,11 / fast_pskip=0 / chroma_qp_offset=-2 / threads=12 / lookahead_threads=2 / sliced_threads=0 / nr=0 / decimate=0 / interlaced=0 / bluray_compat=0 / constrained_intra=0 / bframes=10 / b_pyramid=2 / b_adapt=2 / b_bias=0 / direct=3 / weightb=1 / open_gop=0 / weightp=2 / keyint=240 / keyint_min=23 / scenecut=40 / intra_refresh=0 / rc=2pass / mbtree=0 / bitrate=8000 / ratetol=1.0 / qcomp=0.60 / qpmin=0 / qpmax=69 / qpstep=4 / cplxblur=20.0 / qblur=0.5 / ip_ratio=1.40 / pb_ratio=1.30 / aq=1:0.80
Язык : English
Default : Нет
Forced : Нет
Аудио #1
Идентификатор : 2
Формат : AC-3
Формат/Информация : Audio Coding 3
Расширение режима : CM (complete main)
Параметр Endianness формата : Big
Идентификатор кодека : A_AC3
Продолжительность : 1 ч. 34 м.
Вид битрейта : Постоянный
Битрейт : 448 Кбит/сек
Каналы : 6 каналов
Расположение каналов : Front: L C R, Side: L R, LFE
Частота : 48,0 КГц
Частота кадров : 31,250 кадров/сек (1536 spf)
Метод сжатия : С потерями
Размер потока : 303 Мбайт (5%)
Заголовок : DVO R5
Язык : Russian
Default : Нет
Forced : Нет
Аудио #2
Идентификатор : 3
Формат : DTS
Формат/Информация : Digital Theater Systems
Режим : 16
Параметр Endianness формата : Big
Идентификатор кодека : A_DTS
Продолжительность : 1 ч. 34 м.
Вид битрейта : Постоянный
Битрейт : 768 Кбит/сек
Каналы : 6 каналов
Расположение каналов : Front: L C R, Side: L R, LFE
Частота : 48,0 КГц
Частота кадров : 93,750 кадра/сек (512 spf)
Битовая глубина : 16 бит
Метод сжатия : С потерями
Размер потока : 519 Мбайт (8%)
Язык : English
Default : Нет
Forced : Нет



_________________
Проголосуй за трекер Открытый торрент трекер - RUS-MEDIA.ORG

Проголосуй Открытый торрент трекер - RUS-MEDIA.ORG


Вернуться к началу
 Профиль Отправить личное сообщение  
 
   Похожие торренты   Автор   Торрент   Размер 
В этой теме нет новых непрочитанных сообщений. Изоляция / Isolation [ужасы, триллер, 2005] HDRip-AVC, Dvo

salma3

68 | 13

743.03 МБ

В этой теме нет новых непрочитанных сообщений. Изоляция / Isolation [боевик, триллер, 2015] HDRip, Mvo

salma3

124 | 35

1.37 ГБ

В этой теме нет новых непрочитанных сообщений. И грянул гром / A Sound of Thunder [ужасы, фантастика, боевик, триллер, приключения, 2005] BDRip 1080p, Dub

salma3

36 | 7

11.61 ГБ

В этой теме нет новых непрочитанных сообщений. Дум / Doom [Ужасы, фантастика, боевик, 2005] BDRip 1080p, Dub [Unrated Extended Edition]

salma3

0 | 0

11.19 ГБ

В этой теме нет новых непрочитанных сообщений. Земля мертвых / Land of the Dead [Ужасы, фантастика, триллер, 2005] BDRip-AVC, Mvo [Unrated]

salma3

170 | 25

746.56 МБ

В этой теме нет новых непрочитанных сообщений. Игра в прятки / Hide and Seek [Ужасы, триллер, детектив, 2005] BDRip 1080p, Dub

salma3

21 | 115

11.25 ГБ

В этой теме нет новых непрочитанных сообщений. Ключ от всех дверей / The Skeleton Key [ужасы, триллер, детектив, 2005] BDRip 1080p, Dub+Dvo+Avo+Sub

salma3

77 | 52

12.49 ГБ


Начать новую тему Ответить на тему  [ 1 сообщение ] 




Для Мосгорсуда, Роскомнадзора и рекламодателей:: mosgorsud-torrent[собачка]yandex.ru
cron