Торрент файл
скачать торрент магнет ссылка Добавлен: 22 апр 2017, 12:42
Размер: 8.07 ГБ
Сидеров: 117
Личеров: 79
Статус: (salma3)
Автор

СообщениеДобавлено: 22 апр 2017, 12:42 

Не в сети
Супермодератор
Аватара пользователя
Дата регистрации:
15 фев 2012, 16:44
Возраст: 28
Спасибо: 7290 / 2147
Сообщения: 70686
Год выхода: 2009
Жанр: мелодрама, комедия
Режиссер: Барбара Топсеэ-Ротенборг

В ролях: Девон Веркхейзер, Скаут Тейлор-Комптон, Таня Верафилд, Кен Лакки, Адам Дж. Бернштейн, Николас Браун, Дэниэл Поло, Шон Маркетт, Твинк Каплан, Джеймс Экхаус, ...

О фильме: Виктор, новичок в классе, без памяти влюбляется в красавицу Анию — самую популярную девочку в школе. Она — дочь богатых родителей, сохранившая при этом чарующую невинность в характере. Как и ожидалось, Ания ходит на свидания с богачом и красавчиком Питером, но тут и там натыкается на неуклюжего и странноватого Виктора. После пары десятков нелепых ситуаций, неуместных иков и трогательных глупостей, между Виктором и Анией наконец-то пробегает первая искра…



Страна: США, Дания
Продолжительность: 01:29:42
Перевод: Профессиональный (многоголосный, закадровый) [Кармен Видео]

Кодек: x264
Качество: BDRip 1080p
Видео: 1920x1080, 12000 kbps, 23,976 fps
Аудио #1: AC-3, 6 ch, 448 kbps (Rus) - MVO «Кармен Видео»
Аудио #2: AC-3, 6 ch, 448 kbps (Eng)
Субтитры: Русские, Английские

За исходник спасибо - blaaaaaaaa
x264 [info]: frame I:1117 Avg QP:13.90 size:247288
x264 [info]: frame P:24351 Avg QP:16.35 size:121723
x264 [info]: frame B:103594 Avg QP:17.90 size: 46582
x264 [info]: consecutive B-frames: 1.6% 1.1% 6.1% 2.8% 6.5% 79.1% 1.4% 0.2% 0.4% 0.1% 0.1% 0.1% 0.5%

Общее
Уникальный идентификатор : 225350448858963354950863759507577775687 (0xA988EAF142F10B5DA2F147B155E22647)
Полное имя : ПоцелуйчИК (Love at First Hiccup) 2009 BDRip 1080p.mkv
Формат : Matroska
Версия формата : Version 2
Размер файла : 8,07 Гбайт
Продолжительность : 1 ч. 29 м.
Общий поток : 12,9 Мбит/сек
Дата кодирования : UTC 2017-04-21 19:07:26
Программа кодирования : mkvmerge v4.0.0 ('The Stars were mine') сборка от Jun 6 2010 16:18:42
Библиотека кодирования : libebml v1.0.0 + libmatroska v1.0.0

Видео
Идентификатор : 1
Формат : AVC
Формат/Информация : Advanced Video Codec
Профиль формата : High@L4.1
Параметр CABAC формата : Да
Параметр ReFrames формата : 4 кадра
Идентификатор кодека : V_MPEG4/ISO/AVC
Продолжительность : 1 ч. 29 м.
Битрейт : 12,0 Мбит/сек
Ширина : 1920 пикселей
Высота : 1080 пикселей
Соотношение сторон : 16:9
Режим частоты кадров : Постоянный
Частота кадров : 23,976 (24000/1001) кадра/сек
Цветовое пространство : YUV
Субдискретизация насыщенности : 4:2:0
Битовая глубина : 8 бит
Тип развёртки : Прогрессивная
Бит/(Пиксели*Кадры) : 0.241
Размер потока : 7,35 Гбайт (91%)
Библиотека кодирования : x264 core 146 r2538 121396c
Настройки программы : cabac=1 / ref=4 / deblock=1:-2:-2 / analyse=0x3:0x133 / me=umh / subme=11 / psy=1 / psy_rd=1.00:0.00 / mixed_ref=1 / me_range=32 / chroma_me=1 / trellis=2 / 8x8dct=1 / cqm=0 / deadzone=21,11 / fast_pskip=0 / chroma_qp_offset=-2 / threads=12 / lookahead_threads=2 / sliced_threads=0 / nr=0 / decimate=0 / interlaced=0 / bluray_compat=0 / constrained_intra=0 / bframes=12 / b_pyramid=2 / b_adapt=2 / b_bias=0 / direct=3 / weightb=1 / open_gop=0 / weightp=2 / keyint=240 / keyint_min=23 / scenecut=40 / intra_refresh=0 / rc=2pass / mbtree=0 / bitrate=12000 / ratetol=1.0 / qcomp=0.60 / qpmin=0 / qpmax=69 / qpstep=4 / cplxblur=20.0 / qblur=0.5 / ip_ratio=1.40 / pb_ratio=1.30 / aq=3:0.80
Язык : English
Default : Нет
Forced : Нет

Аудио #1
Идентификатор : 2
Формат : AC-3
Формат/Информация : Audio Coding 3
Расширение режима : CM (complete main)
Параметр Endianness формата : Big
Идентификатор кодека : A_AC3
Продолжительность : 1 ч. 29 м.
Вид битрейта : Постоянный
Битрейт : 448 Кбит/сек
Каналы : 6 каналов
Расположение каналов : Front: L C R, Side: L R, LFE
Частота : 48,0 КГц
Частота кадров : 31,250 кадров/сек (1536 spf)
Метод сжатия : С потерями
Размер потока : 287 Мбайт (3%)
Заголовок : MVO
Язык : Russian
Default : Нет
Forced : Нет

Аудио #2
Идентификатор : 3
Формат : AC-3
Формат/Информация : Audio Coding 3
Расширение режима : CM (complete main)
Параметр Endianness формата : Big
Идентификатор кодека : A_AC3
Продолжительность : 1 ч. 29 м.
Вид битрейта : Постоянный
Битрейт : 448 Кбит/сек
Каналы : 6 каналов
Расположение каналов : Front: L C R, Side: L R, LFE
Частота : 48,0 КГц
Частота кадров : 31,250 кадров/сек (1536 spf)
Метод сжатия : С потерями
Размер потока : 287 Мбайт (3%)
Язык : English
Default : Нет
Forced : Нет

Текст #1
Идентификатор : 4
Формат : UTF-8
Идентификатор кодека : S_TEXT/UTF8
Идентификатор кодека/Информация : UTF-8 Plain Text
Язык : Russian
Default : Нет
Forced : Нет

Текст #2
Идентификатор : 5
Формат : UTF-8
Идентификатор кодека : S_TEXT/UTF8
Идентификатор кодека/Информация : UTF-8 Plain Text
Язык : English
Default : Нет
Forced : Нет


_________________
Проголосуй за трекер Открытый торрент трекер - RUS-MEDIA.ORG

Проголосуй Открытый торрент трекер - RUS-MEDIA.ORG


Вернуться к началу
 Профиль Отправить личное сообщение  
 
   Похожие торренты   Автор   Торрент   Размер 
В этой теме нет новых непрочитанных сообщений. Консьерж / For Love or Money [драма, мелодрама, комедия, 1993] BDRip 1080p, Dub

salma3

15 | 10

10.66 ГБ

В этой теме нет новых непрочитанных сообщений. С любовью, Саймон / Love, Simon [Драма, мелодрама, комедия, 2018] BDRip 1080p, Mvo

salma3

0 | 0

11.58 ГБ

В этой теме нет новых непрочитанных сообщений. Реальная любовь / Love Actually [мелодрама, комедия, драма, 2003] BDRip HEVC 1080p, Dub

salma3

28 | 25

10.24 ГБ

В этой теме нет новых непрочитанных сообщений. Непристойное кино / Sex Pot [мелодрама, комедия, 2009] BDRip 1080p, Mvo

salma3

197 | 116

7.12 ГБ

В этой теме нет новых непрочитанных сообщений. Три идиота / 3 Idiots [Драма, мелодрама, комедия, 2009] BDRip 1080p, Mvo+Dvo+Sub

salma3

143 | 59

14.87 ГБ

В этой теме нет новых непрочитанных сообщений. P.S. Я люблю тебя / P.S. I Love You [Драма, мелодрама, экранизация, 2007] BDRip 1080p, Dub+Mvo+Avo+Sub

salma3

108 | 37

16.06 ГБ

В этой теме нет новых непрочитанных сообщений. Лицо любви / The Face of Love [Драма, мелодрама, 2013] BDRip 1080p, Mvo

salma3

84 | 44

6.44 ГБ


Начать новую тему Ответить на тему  [ 1 сообщение ] 




Для Мосгорсуда, Роскомнадзора и рекламодателей:: mosgorsud-torrent[собачка]yandex.ru
cron