Торрент файл
скачать торрент магнет ссылка Добавлен: 19 апр 2017, 12:08
Размер: 4.8 ГБ
Сидеров: 3844
Личеров: 1366
Статус: (salma3)
Автор

СообщениеДобавлено: 19 апр 2017, 12:08 

В сети
Супермодератор
Аватара пользователя
Дата регистрации:
15 фев 2012, 16:44
Возраст: 28
Спасибо: 7060 / 2147
Сообщения: 59017
Год выхода: 2016
Жанр: Триллер, драма, приключения
Режиссер: Стивен Гейган

В ролях: Мэттью МакКонахи, Эдгар Рамирес, Брайс Даллас Ховард, Кори Столл, Тоби Кеббелл, Билл Кэмп, Джошуа Харто, Тимоти С. Саймонс, Крэйг Т. Нельсон, Мэйкон Блэр

О фильме:
В начале 80-х годов прошлого столетия полулегальный бизнес Кенни Уэллса по скупке и перепродаже золота приносил его владельцу огромные доходы. Однако внезапная смерть отца, а затем разразившийся в Соединенных Штатах финансовый кризис поставил некогда процветающую компанию на грань банкротства. И тогда Уэллс закладывает в ломбарде последний золотой браслет жены и покупает билет на самолет в Индонезию – там, в дебрях непроходимых джунглей, его старый партнер по бизнесу якобы наткнулся на золотое месторождение. Кажется, судьба все же улыбнулась Уэллсу - но он даже не подозревает, что ждет его впереди



Страна: США
Продолжительность: 02:00:20
Перевод(ы)1: Любительский [многоголосый] [Paradox&Omskbird Records]
Перевод(ы)2:Авторский | Михаил Чадов

Файл
Качество: WEB-DL 1080p
Видео: MPEG-4 AVC, 1912x792, 4562 Kbit/s, 23.976 fps
Аудио #01: 48 kHz, AC3, 2.0, 384 Kbps | Paradox&Omskbird Records | RUS |
Аудио #02: 48 kHz, AC3, 2.0, 384 Kbps | Авторский | RUS |
Аудио #03: 48 kHz, AC3, 5.1, 384 Kbps | Оригинал | ENG |
Субтитры: Английские

General
Unique ID : 234414874532167327342132322113594274483 (0xB05AA9A1EE734BE9B8DE342485AF32B3)
Complete name : F:VideoGold.2016.WEB-DL.1080p.ExKinoRay.mkv
Format : Matroska
Format version : Version 4 / Version 2
File size : 4.80 GiB
Duration : 2 h 0 min
Overall bit rate : 5 716 kb/s
Encoded date : UTC 2017-04-19 06:56:03
Writing application : mkvmerge v10.0.0 ('To Drown In You') 64bit
Writing library : libebml v1.3.4 + libmatroska v1.4.5

Video
ID : 1
Format : AVC
Format/Info : Advanced Video Codec
Format profile : High@L4
Format settings, CABAC : Yes
Format settings, ReFrames : 5 frames
Codec ID : V_MPEG4/ISO/AVC
Duration : 2 h 0 min
Bit rate : 4 562 kb/s
Width : 1 912 pixels
Height : 792 pixels
Display aspect ratio : 2.40:1
Frame rate mode : Constant
Frame rate : 23.976 (24000/1001) FPS
Color space : YUV
Chroma subsampling : 4:2:0
Bit depth : 8 bits
Scan type : Progressive
Bits/(Pixel*Frame) : 0.126
Stream size : 3.83 GiB (80%)
Language : English
Default : Yes
Forced : No
Color range : Limited
Color primaries : BT.709
Transfer characteristics : BT.709
Matrix coefficients : BT.709

Audio #1
ID : 2
Format : AC-3
Format/Info : Audio Coding 3
Format settings, Endianness : Big
Codec ID : A_AC3
Duration : 2 h 0 min
Bit rate mode : Constant
Bit rate : 384 kb/s
Channel(s) : 2 channels
Channel positions : Front: L R
Sampling rate : 48.0 kHz
Frame rate : 31.250 FPS (1536 spf)
Bit depth : 16 bits
Compression mode : Lossy
Stream size : 330 MiB (7%)
Title : MVO
Language : Russian
Service kind : Complete Main
Default : Yes
Forced : No

Audio #2
ID : 3
Format : AC-3
Format/Info : Audio Coding 3
Format settings, Endianness : Big
Codec ID : A_AC3
Duration : 2 h 0 min
Bit rate mode : Constant
Bit rate : 384 kb/s
Channel(s) : 2 channels
Channel positions : Front: L R
Sampling rate : 48.0 kHz
Frame rate : 31.250 FPS (1536 spf)
Bit depth : 16 bits
Compression mode : Lossy
Stream size : 330 MiB (7%)
Title : AVO
Language : Russian
Service kind : Complete Main
Default : No
Forced : No

Audio #3
ID : 4
Format : AC-3
Format/Info : Audio Coding 3
Format settings, Endianness : Big
Codec ID : A_AC3
Duration : 2 h 0 min
Bit rate mode : Constant
Bit rate : 384 kb/s
Channel(s) : 6 channels
Channel positions : Front: L C R, Side: L R, LFE
Sampling rate : 48.0 kHz
Frame rate : 31.250 FPS (1536 spf)
Bit depth : 16 bits
Compression mode : Lossy
Stream size : 331 MiB (7%)
Title : Original
Language : English
Service kind : Complete Main
Default : No
Forced : No

Text
ID : 5
Format : UTF-8
Codec ID : S_TEXT/UTF8
Codec ID/Info : UTF-8 Plain Text
Duration : 1 h 52 min
Bit rate : 66 b/s
Count of elements : 1678
Stream size : 54.9 KiB (0%)
Title : Full
Language : English
Default : No
Forced : No

Menu
00:00:00.000 : en:1
00:08:42.000 : en:2
00:20:56.000 : en:3
00:31:32.000 : en:4
00:42:22.000 : en:5
00:53:14.000 : en:6
01:04:14.000 : en:7
01:12:52.000 : en:8
01:22:41.000 : en:9
01:31:05.000 : en:10
01:39:53.000 : en:11
01:52:55.000 : en:12


Релиз от: Автор релиза:


_________________
Проголосуй за трекер Открытый торрент трекер - RUS-MEDIA.ORG

Проголосуй Открытый торрент трекер - RUS-MEDIA.ORG


Вернуться к началу
 Профиль Отправить личное сообщение  
 
   Похожие торренты   Автор   Торрент   Размер 
В этой теме нет новых непрочитанных сообщений. Золото / Gold [триллер, драма, приключения, 2016] WEB-DL 720p, Mvo+Avo+Sub

salma3

111 | 44

4.3 ГБ

В этой теме нет новых непрочитанных сообщений. Золото / Gold [триллер, драма, приключения, 2016] BDRip, Dub [iTunes]

salma3

10407 | 1913

1.41 ГБ

В этой теме нет новых непрочитанных сообщений. Золото Маккенны / Mackenna's Gold [мелодрама, вестерн, приключения, 1969] BDRip 1080p, Dub

salma3

66 | 21

11.59 ГБ

В этой теме нет новых непрочитанных сообщений. Зеленое золото / Green is Gold [драма, криминал, 2016] DVDRip, Avo

salma3

175 | 9

1.53 ГБ

В этой теме нет новых непрочитанных сообщений. Золото Маккенны / Mackenna's Gold [Вестерн, приключения, 1969] BDRip-AVC, Dub

salma3

28 | 0

2.18 ГБ

В этой теме нет новых непрочитанных сообщений. Золото Ули / Ulee's Gold [Драма, 1996] BDRip 720p, Dvo+Sub

salma3

15 | 36

8.86 ГБ

В этой теме нет новых непрочитанных сообщений. Белое золото / White Gold [S01] [Комедия, 2017] WEBRip 720p, Mvo [Jaskier]

salma3

66 | 32

2.05 ГБ


Начать новую тему Ответить на тему  [ 1 сообщение ] 




Для Мосгорсуда, Роскомнадзора и рекламодателей:: mosgorsud-torrent[собачка]yandex.ru
cron