Торрент файл
скачать торрент магнет ссылка Добавлен: 19 апр 2017, 12:00
Размер: 4.3 ГБ
Сидеров: 111
Личеров: 44
Статус: (salma3)
Автор

СообщениеДобавлено: 19 апр 2017, 12:00 

Не в сети
Супермодератор
Аватара пользователя
Дата регистрации:
15 фев 2012, 16:44
Возраст: 28
Спасибо: 6829 / 2147
Сообщения: 49138
Год выпуска: 2016
Жанр: триллер, драма, приключения
Режиссер: Стивен Гейган

В ролях: Мэттью МакКонахи, Эдгар Рамирес, Брайс Даллас Ховард, Кори Столл, Тоби Кеббелл, Билл Кэмп, Джошуа Харто, Тимоти С. Саймонс, Крэйг Т. Нельсон, Мэйкон Блэр

Описание:
Сюжет рассказывает историю Кенни Уэллса - современного золотоискателя, хваткого дельца и мечтателя, который отчаянно ждёт шанса переломить судьбу. Оставшись без особых вариантов, Уэллс находит себе такого же неудачливого напарника - геолога, чтобы реализовать грандиозный план: найти золото в неизведанных индонезийских джунглях.[



Страна: США
Продолжительность: 02:00:20
Перевод: Профессиональный (многоголосый, закадровый)[Paradox&Omskbird Records]

Формат: WEB-DL 720p
Видео: 1280x536p (2.40:1), 23.976 fps, AVC MPEG-4 (H.264), ~3952 kbps, 0.240 bit/pixel
Аудио#1: Русский: 48 kHz, AC3 Dolby Digital, 2 ch, ~384 kbps
Аудио#2: Русский: 48 kHz, AC3 Dolby Digital, 2 ch, ~384 kbps
Аудио#3: Английский: 48 kHz, AC3 Dolby Digital, 6 ch, ~384 kbps
Субтитры: Английские

General
Unique ID : 189098095775509003179787087321270613714 (0x8E42F7F02504A1D0B908541C7B5876D2)
Complete name : F:VideoGold.2016.WEB-DL.720p.ExKinoRay.mkv
Format : Matroska
Format version : Version 4 / Version 2
File size : 4.30 GiB
Duration : 2 h 0 min
Overall bit rate mode : Variable
Overall bit rate : 5 106 kb/s
Encoded date : UTC 2017-04-19 06:00:12
Writing application : mkvmerge v10.0.0 ('To Drown In You') 64bit
Writing library : libebml v1.3.4 + libmatroska v1.4.5

Video
ID : 1
Format : AVC
Format/Info : Advanced Video Codec
Format profile :
Format settings, CABAC : Yes
Format settings, ReFrames : 12 frames
Codec ID : V_MPEG4/ISO/AVC
Duration : 2 h 0 min
Bit rate mode : Variable
Bit rate : 3 952 kb/s
Maximum bit rate : 40.0 Mb/s
Width : 1 280 pixels
Height : 536 pixels
Display aspect ratio : 2.40:1
Frame rate mode : Constant
Frame rate : 23.976 (24000/1001) FPS
Color space : YUV
Chroma subsampling : 4:2:0
Bit depth : 8 bits
Scan type : Progressive
Bits/(Pixel*Frame) : 0.240
Stream size : 3.33 GiB (77%)
Language : English
Default : Yes
Forced : No
Color range : Limited
Color primaries : BT.709
Transfer characteristics : BT.709
Matrix coefficients : BT.709

Audio #1
ID : 2
Format : AC-3
Format/Info : Audio Coding 3
Format settings, Endianness : Big
Codec ID : A_AC3
Duration : 2 h 0 min
Bit rate mode : Constant
Bit rate : 384 kb/s
Channel(s) : 2 channels
Channel positions : Front: L R
Sampling rate : 48.0 kHz
Frame rate : 31.250 FPS (1536 spf)
Bit depth : 16 bits
Compression mode : Lossy
Stream size : 331 MiB (8%)
Title : MVO
Language : Russian
Service kind : Complete Main
Default : Yes
Forced : No

Audio #2
ID : 3
Format : AC-3
Format/Info : Audio Coding 3
Format settings, Endianness : Big
Codec ID : A_AC3
Duration : 2 h 0 min
Bit rate mode : Constant
Bit rate : 384 kb/s
Channel(s) : 2 channels
Channel positions : Front: L R
Sampling rate : 48.0 kHz
Frame rate : 31.250 FPS (1536 spf)
Bit depth : 16 bits
Compression mode : Lossy
Stream size : 331 MiB (8%)
Title : AVO
Language : Russian
Service kind : Complete Main
Default : No
Forced : No

Audio #3
ID : 4
Format : AC-3
Format/Info : Audio Coding 3
Format settings, Endianness : Big
Codec ID : A_AC3
Duration : 2 h 0 min
Bit rate mode : Constant
Bit rate : 384 kb/s
Channel(s) : 6 channels
Channel positions : Front: L C R, Side: L R, LFE
Sampling rate : 48.0 kHz
Frame rate : 31.250 FPS (1536 spf)
Bit depth : 16 bits
Compression mode : Lossy
Stream size : 331 MiB (8%)
Title : Original
Language : English
Service kind : Complete Main
Default : No
Forced : No

Text
ID : 5
Format : UTF-8
Codec ID : S_TEXT/UTF8
Codec ID/Info : UTF-8 Plain Text
Duration : 1 h 52 min
Bit rate : 64 b/s
Count of elements : 1714
Stream size : 53.1 KiB (0%)
Title : Full
Language : English
Default : No
Forced : No

Menu
00:00:00.000 : en:Opening Sequence
00:06:43.000 : en:Not Our Money
00:12:14.000 : en:Ring Of Fire
00:17:50.000 : en:Upstream Gold
00:24:09.000 : en:You're Out There Baby
00:30:06.000 : en:Running Out Of Money
00:35:43.000 : en:We Got A Strike
00:42:31.000 : en:Going To Be Rich
00:48:42.000 : en:Let's Take A Trip
00:53:45.000 : en:First Day Stock
00:59:50.000 : en:Using You
01:06:13.000 : en:Foolish Decision
01:11:35.000 : en:New Plan
01:17:53.000 : en:Wells Cut A Deal
01:23:26.000 : en:Golden Pickaxe
01:29:55.000 : en:No Gold
01:35:39.000 : en:Fool's Gold
01:41:19.000 : en:The Body
01:46:59.000 : en:Gold
01:53:06.000 : en:End Credits





_________________
Проголосуй за трекер Открытый торрент трекер - RUS-MEDIA.ORG

Проголосуй Открытый торрент трекер - RUS-MEDIA.ORG



реклама партнёра


Вернуться к началу
 Профиль Отправить личное сообщение  
 
   Похожие торренты   Автор   Торрент   Размер 
В этой теме нет новых непрочитанных сообщений. Золото / Gold [триллер, драма, приключения, 2016] WEB-DL 1080p, Mvo+Avo+Sub

salma3

3844 | 1366

4.8 ГБ

В этой теме нет новых непрочитанных сообщений. Золото / Gold [триллер, драма, приключения, 2016] BDRip, Dub [iTunes]

salma3

10407 | 1913

1.41 ГБ

В этой теме нет новых непрочитанных сообщений. Зеленое золото / Green is Gold [драма, криминал, 2016] DVDRip, Avo

salma3

175 | 9

1.53 ГБ

В этой теме нет новых непрочитанных сообщений. Золото Ули / Ulee's Gold [Драма, 1996] BDRip 720p, Dvo+Sub

salma3

15 | 36

8.86 ГБ

В этой теме нет новых непрочитанных сообщений. Золото Маккенны / Mackenna's Gold [Вестерн, приключения, 1969] BDRip-AVC, Dub

salma3

28 | 0

2.18 ГБ

В этой теме нет новых непрочитанных сообщений. Белое золото / White Gold [S01] [Комедия, 2017] WEBRip 720p, Mvo [Jaskier]

salma3

66 | 32

2.05 ГБ

В этой теме нет новых непрочитанных сообщений. Золото Маккенны / Mackenna's Gold [мелодрама, вестерн, приключения, 1969] BDRip 1080p, Dub

salma3

66 | 21

11.59 ГБ


Начать новую тему Ответить на тему  [ 1 сообщение ] 




Для Мосгорсуда, Роскомнадзора и рекламодателей:: mosgorsud-torrent[собачка]yandex.ru