Торрент файл
скачать торрент магнет ссылка Добавлен: 18 апр 2017, 12:05
Размер: 5.1 ГБ
Сидеров: 63
Личеров: 42
Статус: (salma3)
Автор

СообщениеДобавлено: 18 апр 2017, 12:05 

Не в сети
Супермодератор
Аватара пользователя
Дата регистрации:
15 фев 2012, 16:44
Возраст: 29
Спасибо: 7328 / 2147
Сообщения: 73609
Год выхода: 1971
Жанр: Комедия, вестерн
Режиссер: Эухенио Мартин

В ролях: Ли Ван Клиф, Джеймс Мэйсон, Джина Лоллобриджида, Симон Андреу, Джанни Гарко, Альдо Самбрелл, Джесс Хан, Даниэль Мартин, Луис Ривера, Эдуардо Фахардо, Серджо Фантони, Хосе Мануэль Мартин, Франциско Ниэто,

О фильме:
Американская революция….. но Кингу с его бандой на это наплевать — они по-прежнему продолжают грабить банки. И вдруг выясняется что у некоего мистера Монтеро есть чек на миллион долларов, и этот чек оказывается нужен не только Кингу, но и другим баньдюгам…



Страна: Испания, Италия, Франция
Продолжительность: 01:31:54
Перевод: Авторский (одноголосый, закадровый)[С.Визгунов]

Файл
Качество: BDRip 720p
Видео: 1280x516, 23,976 fps, High@L4.1, ~7394 kbps
Аудио#1: Russian: 48 kHz, AC3, 2/0 (L,R) ch, ~192 kbps avg |Одноголосый закадровый, С.Визгунов|
Аудио#2: English: 48 kHz, AC3, 2/0 (L,R) ch, ~192 kbps avg
Субтитры: Отсутствуют

General
Unique ID : 55919076373945723238198571180968015700 (0x2A119F5351CFF6038182091796127754)
Complete name : D:КИНОРека плохого человека.(1971).BLU-RAY.720p.[-=DoMiNo=-].mkv
Format : Matroska
Format version : Version 4 / Version 2
File size : 5.10 GiB
Duration : 1 h 31 min
Overall bit rate : 7 936 kb/s
Movie name : Река плохого человека
Deion : Описание: Американская революция….. но Кингу с его бандой на это наплевать — они по-прежнему продолжают грабить банки. И вдруг выясняется что у некоего мистера Монтеро есть чек на миллион долларов, и этот чек оказывается нужен не только Кингу, но и другим баньдюгам….
Writing application : XviD4PSP 7.0.376 DAILY
Writing library : Lavf57.41.100
Attachments : poster.jpg
ACTORS : Ли Ван Клиф, Джеймс Мейсон, Джина Лоллобриджида, Симон Андреу, Диана Лорис, Джанни Гарко, Альдо Самбрель, Джесс Хан, Даниэль Мартин, Луис Ривера, Лоне Флеминг, Эдуардо Фахардо, Серджо Фантони, Хосе Мануэль Мартин, Франсиско Нието, Хосе Риесго, Тито Гарсия, Бернабе Барта Барри, Вик Альберт, Рикардо Паласиос, Carmen Guardón, Джин Коллинз, Робер Ломбар, Карл Рэпп, Дэн ван Хузен, Аллен Расселл, Bruno Sismondi, Руперт Крабб, Пер Барклай, Уильям Конрой, Кловис Дэйв, Клаудия Грави, Том Пауэр, Дэвид Томсон
COMPOSER : Вальдо де лос Риос
COUNTRY : Испания, Италия, Франция
DATE : 1971
DIRECTOR : Эухенио Мартин
ENCODING_INFO : BluRay > MKV 720p / H264 > X264 CRF 17.0 Произвольный / AC3 > COPY Безопасное / DTS-HD MA > AC3 CBR 192kbps
GENRE : комедия, вестерн
HD_VIDEO : 1
IMDB_RATING : 4.60
ITUNEXTC : mpaa|PG|200|
MEDIA_TYPE : 9
ORIGINAL_ACTORS : Lee Van Cleef, James Mason, Gina Lollobrigida, Simón Andreu (в титрах: Simon Andreu), Diana Lorys, Gianni Garko (в титрах: John Garko), Aldo Sambrell, Jess Hahn, Daniel Martín, Luis Rivera, Lone Fleming (в титрах: Lone Ferk), Eduardo Fajardo, Sergio Fantoni, José Manuel Martín (в титрах: Jose Manuel Martin), Francisco Nieto, José Riesgo (в титрах: Jose Riesgo), Tito García (в титрах: Tito Garcia), Barta Barri, Vic Albert, Ricardo Palacios, (в титрах: Carmen Guardon), Gene Collins, Robert Lombard, Carl Rapp, Dan van Husen, Allen Russell, Rupert Crabb, Per Barclay, William Conroy, Clovis Dave, Claudia Gravy, Tom Power, David Thomson
ORIGINAL_TITLE : El hombre de Río Malo
PRODUCER : Бернард Гордон, Ирвинг Лернер
RATING : 6.352
WRITER : Филип Йордан, Эухенио Мартин

Video
ID : 1
Format : AVC
Format/Info : Advanced Video Codec
Format profile : High@L4.1
Format settings, CABAC : Yes
Format settings, ReFrames : 9 frames
Codec ID : V_MPEG4/ISO/AVC
Duration : 1 h 31 min
Bit rate : 7 394 kb/s
Width : 1 280 pixels
Height : 516 pixels
Display aspect ratio : 2.481
Frame rate mode : Constant
Frame rate : 23.976 (24000/1001) FPS
Color space : YUV
Chroma subsampling : 4:2:0
Bit depth : 8 bits
Scan type : Progressive
Bits/(Pixel*Frame) : 0.467
Stream size : 4.75 GiB (93%)
Title : BLU-RAY_720p_RIP_BY_-=DoMiNo=-
Writing library : x264 core 148 r2762M 90a61ec
Encoding settings : cabac=1 / ref=9 / deblock=1:-3:-3 / analyse=0x3:0x133 / me=umh / subme=9 / psy=1 / psy_rd=1.00:0.10 / mixed_ref=1 / me_range=48 / chroma_me=1 / trellis=2 / 8x8dct=1 / cqm=0 / deadzone=21,11 / fast_pskip=0 / chroma_qp_offset=-3 / threads=8 / lookahead_threads=2 / sliced_threads=0 / nr=0 / decimate=1 / interlaced=0 / bluray_compat=0 / constrained_intra=0 / bframes=12 / b_pyramid=2 / b_adapt=2 / b_bias=0 / direct=3 / weightb=1 / open_gop=0 / weightp=2 / keyint=230 / keyint_min=23 / scenecut=40 / intra_refresh=0 / rc=crf / mbtree=0 / crf=17.0 / qcomp=0.60 / qpmin=0 / qpmax=69 / qpstep=4 / ip_ratio=1.40 / pb_ratio=1.30 / aq=1:1.00
Default : Yes
Forced : No
Color range : Limited
Color primaries : BT.709
Transfer characteristics : BT.709
Matrix coefficients : BT.709
DURATION : 01:31:48.128000000

Audio #1
ID : 2
Format : AC-3
Format/Info : Audio Coding 3
Format settings, Endianness : Big
Codec ID : A_AC3
Duration : 1 h 31 min
Bit rate mode : Constant
Bit rate : 192 kb/s
Channel(s) : 2 channels
Channel positions : Front: L R
Sampling rate : 48.0 kHz
Frame rate : 31.250 FPS (1536 spf)
Bit depth : 16 bits
Compression mode : Lossy
Stream size : 126 MiB (2%)
Title : Одноголосый закадровый, С.Визгунов
Language : Russian
Service kind : Complete Main
Default : Yes
Forced : No
DURATION : 01:31:55.008000000

Audio #2
ID : 3
Format : AC-3
Format/Info : Audio Coding 3
Format settings, Endianness : Big
Codec ID : A_AC3
Duration : 1 h 31 min
Bit rate mode : Constant
Bit rate : 192 kb/s
Channel(s) : 2 channels
Channel positions : Front: L R
Sampling rate : 48.0 kHz
Frame rate : 31.250 FPS (1536 spf)
Bit depth : 16 bits
Compression mode : Lossy
Stream size : 126 MiB (2%)
Title : ENG
Language : English
Service kind : Complete Main
Default : No
Forced : No
DURATION : 01:31:55.008000000

Menu
00:00:00.000 : :Глава 1
00:11:23.599 : :Глава 2
00:21:47.973 : :Глава 3
00:34:15.344 : :Глава 4
00:51:29.544 : :Глава 5
00:59:23.017 : :Глава 6
01:09:14.191 : :Глава 7
01:21:09.948 : :Глава 8


_________________
Проголосуй за трекер Открытый торрент трекер - RUS-MEDIA.ORG

Проголосуй Открытый торрент трекер - RUS-MEDIA.ORG


Вернуться к началу
 Профиль Отправить личное сообщение  
 
   Похожие торренты   Автор   Торрент   Размер 
В этой теме нет новых непрочитанных сообщений. Река плохого человека / El hombre de Río Malo [Комедия, вестерн, 1971] BDRip, Avo

salma3

148 | 45

1.37 ГБ

В этой теме нет новых непрочитанных сообщений. Река плохого человека / El hombre de Rio Malo [Комедия, вестерн, 1971] BDRemux 1080p, Avo

salma3

18 | 42

17.38 ГБ

В этой теме нет новых непрочитанных сообщений. Река плохого человека / El hombre de Rio Malo [Комедия, вестерн, 1972] HDRip, Avo

salma3

52 | 31

745.18 МБ

В этой теме нет новых непрочитанных сообщений. Охота / The Hunting Party [боевик, драма, вестерн, 1971] BDRip 720p, Mvo

salma3

14 | 6

10.1 ГБ

В этой теме нет новых непрочитанных сообщений. Человек с тысячью лиц / El hombre de las mil caras [Триллер, биография, 2016] BDRip 720p, Mvo

salma3

346 | 47

4.96 ГБ

В этой теме нет новых непрочитанных сообщений. Док / «Doc» [Вестерн, 1971] BDRip 1080p, Mvo

salma3

23 | 7

12.5 ГБ

В этой теме нет новых непрочитанных сообщений. Представитель закона / Lawman [вестерн, 1971] BDRip, Mvo

salma3

37 | 6

1.45 ГБ


Начать новую тему Ответить на тему  [ 1 сообщение ] 




Для Мосгорсуда, Роскомнадзора и рекламодателей:: mosgorsud-torrent[собачка]yandex.ru
cron