Торрент файл
скачать торрент магнет ссылка Добавлен: 18 апр 2017, 00:01
Размер: 5.91 ГБ
Сидеров: 0
Личеров: 0
Автор

СообщениеДобавлено: 18 апр 2017, 00:01 

Не в сети
Аватара пользователя
Дата регистрации:
09 авг 2014, 12:07
Спасибо: 61 / 1
Сообщения: 220
Откуда: КРАСНОГОРСК
Великая стена / The Great Wall



Год выпуска: 2016
Выпущено: США, Atlas Entertainment, China Film Group Corporation, Legendary Pictures
Жанр: Фэнтези, боевик, триллер, детектив, приключения
Продолжительность: 01:43:03

Озвучка : Дублированный - - iTunes-Русский

Субтитры: Английские


IMDB
[
Режиссер:
Имоу Чжан

В ролях: Бен Мэтт Дэймон, Тянь Цзин, Педро Паскаль, Лу Хан, Уиллем Дефо, Энди Лау, Эдди Пэн, Нуман Акар, Кенни Лин, Ханьюй Чжан, Вики Юй, Лю Бин, Чжэн Кай, Джонни Чикко, Чэни Чэнь, Кэрри Ван



На протяжении многих столетий каждые 60 лет на Великую стену набегают мифические пожиратели плоти, чередуясь с монголами и опиумными караванами. Двое европейских наемников из отсталых стран невольно оказываются втянутыми в круговорот веществ внутри пищевой цепи. Теперь им нужно решить для себя сложную нравственную дилемму - без шума и пыли вывезти пригоршню взрывающегося черного порошка, или все-таки помочь разноцветным войскам Поднебесной остановить вторжение орд кошмарных тварей.





Качество :WEB-DLRip 1080p
Формат: MKV
Видео кодек: H264
Видео: 7295Кбит/сек,1920х1080,(16.9),в 25.000кадр/сек,AVC(Baseline@L5.1)(1Ref Frames)
Аудио Кодек:AC3

Аудио #1:AC3 , 640 Kbps, 48.0 KHz, 6 ch- -Дублированный- iTunes-Русский


Общее
Уникальный идентификатор : 184259716418236995102245499642262286100 (0x8A9F216B080472B787E88C90EF3F6F14)
Полное имя : C:\ПИРАТИЯ(PIRATIYA)\HDTV 1080p\ВЕЛИКАЯ СТЕНА\THE_GREAT_WALL_2016_Rus_DUB_iTunes_H264_DD5.1_N.B_WEBRip_1080p\The_Great_Wall_2016_Rus_DUB_iTunes_H264_DD5.1_N.B_WEBRip_1080p.mkv
Формат : Matroska
Версия формата : Version 4 / Version 2
Размер файла : 5,71 Гбайт
Продолжительность : 1 ч. 43 м.
Режим общего битрейта : Переменный
Общий поток : 7937 Кбит/сек
Название фильма : The_Great_Wall_2016_Rus_DUB_iTunes_H264_DD5.1_N.B_WEBRip_1080p
Дата кодирования : UTC 2017-04-17 13:42:00
Программа кодирования : mkvmerge v10.0.0 ('To Drown In You') 64bit
Библиотека кодирования : libebml v1.3.4 + libmatroska v1.4.5

Видео
Идентификатор : 1
Формат : AVC
Формат/Информация : Advanced Video Codec
Профиль формата : Baseline@L5.1
Параметр CABAC формата : Нет
Параметр ReFrames формата : 1 кадр
Параметр GOP формата : M=1, N=12
Идентификатор кодека : V_MPEG4/ISO/AVC
Продолжительность : 1 ч. 43 м.
Вид битрейта : Переменный
Битрейт : 7295 Кбит/сек
Максимальный битрейт : 10,5 Мбит/сек
Ширина : 1920 пикселей
Высота : 1080 пикселей
Соотношение сторон : 16:9
Режим частоты кадров : Постоянный
Частота кадров : 25,000 кадров/сек
Частота кадров в оригинале : 24,000 кадра/сек
Цветовое пространство : YUV
Субдискретизация насыщенности : 4:2:0
Битовая глубина : 8 бит
Тип развёртки : Прогрессивная
Бит/(Пиксели*Кадры) : 0.141
Размер потока : 5,25 Гбайт (92%)
Заголовок : The_Great_Wall_2016_Rus_DUB_iTunes_H264_DD5.1_N.B_WEBRip_1080p
Язык : Russian
Default : Да
Forced : Нет

Аудио
Идентификатор : 3
Формат : AC-3
Формат/Информация : Audio Coding 3
Параметр Endianness формата : Big
Идентификатор кодека : A_AC3
Продолжительность : 1 ч. 43 м.
Вид битрейта : Постоянный
Битрейт : 640 Кбит/сек
Каналы : 6 каналов
Расположение каналов : Front: L C R, Side: L R, LFE
Частота : 48,0 КГц
Частота кадров : 31,250 кадров/сек (1536 spf)
Битовая глубина : 16 бит
Метод сжатия : С потерями
Размер потока : 472 Мбайт (8%)
Заголовок : Rus DUB iTunes @DD5.1 AC3 ,640 Kbps, 48.0 KHz, 6 ch
Язык : Russian
ServiceKind/String : Complete Main
Default : Да
Forced : Нет

Текст
Идентификатор : 2
Формат : UTF-8
Идентификатор кодека : S_TEXT/UTF8
Идентификатор кодека/Информация : UTF-8 Plain Text
Продолжительность : 1 ч. 30 м.
Битрейт : 32 бит/сек
ElementCount : 695
Размер потока : 21,5 Кбайт (0%)
Заголовок : Original
Язык : English
Default : Да
Forced : Нет

Меню
00:00:00.000 : en:Глава 01 / en:Глава 01 / en:Глава 01














Релиз от: Nikolai.Baranov & PIRATIYA







_________________

Легко быть оптимистом, когда судьба не валит с ног тяжелыми ударами, а лишь иногда легонько шлепает по заднице.



реклама партнёра


Вернуться к началу
 Профиль Отправить личное сообщение  
 
   Похожие торренты   Автор   Торрент   Размер 
В этой теме нет новых непрочитанных сообщений. Великая стена / The Great Wall [фэнтези, боевик, триллер, 2016] WEB-DLRip, Dub [iTunes]

salma3

690 | 117

1.37 ГБ

В этой теме нет новых непрочитанных сообщений. Великая стена / The Great Wall [Фэнтези, боевик, триллер, 2016] BDRemux 1080p, Dub+Sub [Лицензия]

salma3

199 | 312

25.36 ГБ

В этой теме нет новых непрочитанных сообщений. Великая стена / The Great Wall [Фэнтези, боевик, триллер, 2016] WEBRip 1080p, Dub [Line]

salma3

5975 | 1785

3.85 ГБ

В этой теме нет новых непрочитанных сообщений. Великая стена / The Great Wall [фэнтези, боевик, триллер, приключения, 2016] BDRip, Dub+Sub [Лицензия]

salma3

606 | 211

1.46 ГБ

В этой теме нет новых непрочитанных сообщений. Великая стена / The Great Wall [фэнтези, боевик, триллер, 2016] BDRip-AVC, Dub+Sub [Лицензия]

salma3

211 | 49

2.39 ГБ

В этой теме нет новых непрочитанных сообщений. Великая стена / The Great Wall [Фэнтези, Боевик, Триллер, 2016] BDRip 720p, Dub+Sub [Лицензия]

salma3

664 | 146

5.65 ГБ

В этой теме нет новых непрочитанных сообщений. Великая стена / A Great Wall [драма, комедия, 1986] SATRip, Dvo

salma3

62 | 25

1.57 ГБ


Начать новую тему Ответить на тему  [ 1 сообщение ] 




Для Мосгорсуда, Роскомнадзора и рекламодателей:: mosgorsud-torrent[собачка]yandex.ru