Торрент файл
скачать торрент магнет ссылка Добавлен: 17 апр 2017, 13:00
Размер: 9.24 ГБ
Сидеров: 94
Личеров: 46
Статус: (salma3)
Автор

СообщениеДобавлено: 17 апр 2017, 13:00 

Не в сети
Супермодератор
Аватара пользователя
Дата регистрации:
15 фев 2012, 16:44
Возраст: 28
Спасибо: 7061 / 2147
Сообщения: 59169
Год выхода: 1989
Жанр: ужасы
Режиссер: Джеймс Исаак, Дэвид Блит

В ролях: Лэнс Хенриксен, Брайон Джеймс, Рита Таггарт, Диди Пфайффер, Арон Эйзенберг, Том Брэй, Мэтт Кларк, Дэвид Оливер, Терри Александр, Льюис Аркетт, ...

О фильме: Этот фильм кардинально отличается от предыдущих частей. Если первая часть была комедийным фильмом ужасов, вторая фэнтези-комедией, то третья часть — это чистой воды мистический триллер-ужасы.
Убийца оживает и мстит семье полицейского, арестовавшего его. Их сны превращаются в жуткие кошмары…



Страна: США
Продолжительность: 01:35:16
Перевод: Профессиональный (двуголосый, закадровый) Ren TV
- Авторский (одноголосый, закадровый) Визгунов Сергей

Кодек: x264
Качество: BDRip 1080p
Видео: 1920x1036, 12000 kbps, 23,976 fps
Аудио #1: AC-3, 2 ch, 192 kbps (Rus) - DVO Ren TV
Аудио #2: AC-3, 2 ch, 192 kbps (Rus) - AVO Визгунов Сергей
Аудио #3: DTS, 6 ch, 1509 kbps (Eng)
Субтитры: нет
x264 [info]: frame I:713 Avg QP:15.18 size:158330
x264 [info]: frame P:26638 Avg QP:17.72 size: 98584
x264 [info]: frame B:109699 Avg QP:19.84 size: 53129
x264 [info]: consecutive B-frames: 1.5% 1.4% 4.2% 12.1% 12.8% 54.3% 6.9% 2.3% 1.8% 1.0% 0.7% 0.6% 0.3%
Общее
Уникальный идентификатор : 215243042956101989496845421302663958202 (0xA1EE4D5B578E17A685B2A242D5B54EBA)
Полное имя : Дом 3 Шоу ужасов (The Horror Show) 1989 BDRip 1080p.mkv
Формат : Matroska
Версия формата : Version 2
Размер файла : 9,24 Гбайт
Продолжительность : 1 ч. 35 м.
Общий поток : 13,9 Мбит/сек
Дата кодирования : UTC 2017-04-15 16:36:58
Программа кодирования : mkvmerge v4.0.0 ('The Stars were mine') сборка от Jun 6 2010 16:18:42
Библиотека кодирования : libebml v1.0.0 + libmatroska v1.0.0
Видео
Идентификатор : 1
Формат : AVC
Формат/Информация : Advanced Video Codec
Профиль формата : High@L4.1
Параметр CABAC формата : Да
Параметр ReFrames формата : 4 кадра
Идентификатор кодека : V_MPEG4/ISO/AVC
Продолжительность : 1 ч. 35 м.
Битрейт : 12,0 Мбит/сек
Ширина : 1920 пикселей
Высота : 1036 пикселей
Соотношение сторон : 1,85:1
Режим частоты кадров : Постоянный
Частота кадров : 23,976 (24000/1001) кадра/сек
Цветовое пространство : YUV
Субдискретизация насыщенности : 4:2:0
Битовая глубина : 8 бит
Тип развёртки : Прогрессивная
Бит/(Пиксели*Кадры) : 0.252
Размер потока : 7,80 Гбайт (84%)
Библиотека кодирования : x264 core 146 r2538 121396c
Настройки программы : cabac=1 / ref=4 / deblock=1:-2:-2 / analyse=0x3:0x133 / me=umh / subme=11 / psy=1 / psy_rd=1.00:0.00 / mixed_ref=1 / me_range=32 / chroma_me=1 / trellis=2 / 8x8dct=1 / cqm=0 / deadzone=21,11 / fast_pskip=0 / chroma_qp_offset=-2 / threads=12 / lookahead_threads=2 / sliced_threads=0 / nr=0 / decimate=0 / interlaced=0 / bluray_compat=0 / constrained_intra=0 / bframes=12 / b_pyramid=2 / b_adapt=2 / b_bias=0 / direct=3 / weightb=1 / open_gop=0 / weightp=2 / keyint=240 / keyint_min=23 / scenecut=40 / intra_refresh=0 / rc=2pass / mbtree=0 / bitrate=12000 / ratetol=1.0 / qcomp=0.60 / qpmin=0 / qpmax=69 / qpstep=4 / cplxblur=20.0 / qblur=0.5 / ip_ratio=1.40 / pb_ratio=1.30 / aq=3:0.80
Язык : English
Default : Нет
Forced : Нет
Аудио #1
Идентификатор : 2
Формат : AC-3
Формат/Информация : Audio Coding 3
Расширение режима : CM (complete main)
Параметр Endianness формата : Big
Идентификатор кодека : A_AC3
Продолжительность : 1 ч. 35 м.
Вид битрейта : Постоянный
Битрейт : 192 Кбит/сек
Каналы : 2 канала
Расположение каналов : Front: L R
Частота : 48,0 КГц
Частота кадров : 31,250 кадров/сек (1536 spf)
Метод сжатия : С потерями
Размер потока : 131 Мбайт (1%)
Заголовок : DVO Ren TV
Язык : Russian
Default : Нет
Forced : Нет
Аудио #2
Идентификатор : 3
Формат : AC-3
Формат/Информация : Audio Coding 3
Расширение режима : CM (complete main)
Параметр Endianness формата : Big
Идентификатор кодека : A_AC3
Продолжительность : 1 ч. 35 м.
Вид битрейта : Постоянный
Битрейт : 192 Кбит/сек
Каналы : 2 канала
Расположение каналов : Front: L R
Частота : 48,0 КГц
Частота кадров : 31,250 кадров/сек (1536 spf)
Метод сжатия : С потерями
Размер потока : 131 Мбайт (1%)
Заголовок : AVO Визгунов Сергей
Язык : Russian
Default : Нет
Forced : Нет
Аудио #3
Идентификатор : 4
Формат : DTS
Формат/Информация : Digital Theater Systems
Режим : 16
Параметр Endianness формата : Big
Идентификатор кодека : A_DTS
Продолжительность : 1 ч. 35 м.
Вид битрейта : Постоянный
Битрейт : 1509 Кбит/сек
Каналы : 6 каналов
Расположение каналов : Front: L C R, Side: L R, LFE
Частота : 48,0 КГц
Частота кадров : 93,750 кадра/сек (512 spf)
Битовая глубина : 16 бит
Метод сжатия : С потерями
Размер потока : 1,00 Гбайт (11%)
Язык : English
Default : Нет
Forced : Нет



_________________
Проголосуй за трекер Открытый торрент трекер - RUS-MEDIA.ORG

Проголосуй Открытый торрент трекер - RUS-MEDIA.ORG


Вернуться к началу
 Профиль Отправить личное сообщение  
 
   Похожие торренты   Автор   Торрент   Размер 
В этой теме нет новых непрочитанных сообщений. Дом 3: Шоу ужасов / The Horror Show [ужасы, 1989] BDRip, Avo

salma3

18 | 4

1.45 ГБ

В этой теме нет новых непрочитанных сообщений. Возвращение в школу ужасов / Return to Horror High [ужасы, комедия, 1987] BDRip 1080p, Dvo+Sub

salma3

41 | 16

8.64 ГБ

В этой теме нет новых непрочитанных сообщений. Шоу ужасов Рокки Хоррора / The Rocky Horror Picture Show: Let's Do the Time Warp Again ( мюзикл, триллер, комедия, 2016) WEB-DLRip | Baibako

marya111

247 | 42

1.17 ГБ

В этой теме нет новых непрочитанных сообщений. История ужасов / Horror Story [Ужасы, 2013] DVDRip, Dvo

salma3

3 | 4

1.48 ГБ

В этой теме нет новых непрочитанных сообщений. Возвращение в школу ужасов / Return to Horror High [ужасы, комедия, 1987] HDRip, Mvo

salma3

22 | 6

1.45 ГБ

В этой теме нет новых непрочитанных сообщений. Данвичский ужас / The Dunwich Horror [Ужасы, мистика, 1969] BDRip 1080p, Avo+Sub

salma3

24 | 18

11.16 ГБ

В этой теме нет новых непрочитанных сообщений. Калейдоскоп ужасов 2 / Creepshow 2 [ужасы, фэнтези, триллер, 1987] BDRip, Avo

salma3

9 | 1

1.45 ГБ


Начать новую тему Ответить на тему  [ 1 сообщение ] 




Для Мосгорсуда, Роскомнадзора и рекламодателей:: mosgorsud-torrent[собачка]yandex.ru
cron