Торрент файл
скачать торрент магнет ссылка Добавлен: 17 апр 2017, 12:15
Размер: 9.91 ГБ
Сидеров: 83
Личеров: 46
Статус: (salma3)
Автор

СообщениеДобавлено: 17 апр 2017, 12:15 

Не в сети
Супермодератор
Аватара пользователя
Дата регистрации:
15 фев 2012, 16:44
Возраст: 28
Спасибо: 7199 / 2147
Сообщения: 64757
Год выхода: 2016
Жанр: Детектив
Режиссер: Хитоси Онэ

В ролях: Масахару Фукуяма, Рири Фрэнки, Шигеки Миядзима, Фуми Никайдо, Кэнити Такито, Ё Ёсида

О фильме:
Папарацци Сидзуока Мияконодзё любит проигрывать свои гонорары и залезать в долги. Раньше он работал в журнале, а теперь он фрилансер. Ноби Намэкава - новичок-репортёр, и они вместе натыкаются на сенсацию.



Выпущено: Япония / Gunpowder Co., Office Crescendo
Продолжительность: 02:00:10
Перевод: Любительский двухголосый [2D]

Файл
Формат: MKV
Качество: BDRip 1080p
Видео: MPEG-4 AVC, 10,1 Мбит/с, 1920x804
Аудио 1: Русский (AC3, 2 ch, 192 Кбит/с) DVO [2D]
Аудио 2: Японский (DTS, 6 ch, 1509 Кбит/с) Original
Семпл
Общее
Уникальный идентификатор : 226136033977951322797458106406555389217 (0xAA20374778920E059F23096066A48D21)
Полное имя : E:Раздача-BDRipSensacyay.2016.BDRip 1080p_FreeRuto.mkv
Формат : Matroska
Версия формата : Version 2
Размер файла : 9,91 Гбайт
Продолжительность : 2 ч. 0 м.
Общий поток : 11,8 Мбит/сек
Название фильма : Scoop! (2016) BDRip 1080p_FreeRutor_grab777
Дата кодирования : UTC 2017-04-16 05:50:47
Программа кодирования : mkvmerge v5.8.0 ('No Sleep / Pillow') built on Sep 2 2012 15:37:04
Библиотека кодирования : libebml v1.2.3 + libmatroska v1.3.0
Attachment : Yes / Yes
Видео
Идентификатор : 1
Формат : AVC
Формат/Информация : Advanced Video Codec
Профиль формата : High@L4.1
Параметр CABAC формата : Да
Параметр ReFrames формата : 5 кадров
Идентификатор кодека : V_MPEG4/ISO/AVC
Продолжительность : 2 ч. 0 м.
Битрейт : 10,1 Мбит/сек
Ширина : 1920 пикселей
Высота : 804 пикселя
Соотношение сторон : 2,40:1
Режим частоты кадров : Постоянный
Частота кадров : 23,976 кадра/сек
Цветовое пространство : YUV
Субдискретизация насыщенности : 4:2:0
Битовая глубина : 8 бит
Тип развёртки : Прогрессивная
Бит/(Пиксели*Кадры) : 0.273
Размер потока : 8,29 Гбайт (84%)
Заголовок : Video_WiKi
Библиотека кодирования : x264 core 129 r2245+704+36 8e61944 tMod+MixAQ [8-bit@4:2:0 X86_64]
Настройки программы : cabac=1 / ref=5 / deblock=1:-3:-3 / analyse=0x3:0x133 / me=umh / subme=11 / psy=1 / fade_compensate=0.00 / psy_rd=1.05:0.10 / mixed_ref=1 / me_range=64 / chroma_me=1 / trellis=2 / 8x8dct=1 / cqm=0 / deadzone=21,11 / fast_pskip=0 / chroma_qp_offset=-3 / threads=18 / lookahead_threads=3 / sliced_threads=0 / nr=0 / decimate=0 / interlaced=0 / bluray_compat=0 / constrained_intra=0 / fgo=0 / bframes=10 / b_pyramid=2 / b_adapt=2 / b_bias=0 / direct=3 / weightb=1 / open_gop=0 / weightp=2 / keyint=250 / keyint_min=23 / scenecut=40 / intra_refresh=0 / rc=2pass / mbtree=0 / bitrate=10096 / ratetol=1.0 / qcomp=0.70 / qpmin=0 / qpmax=69 / qpstep=4 / cplxblur=20.0 / qblur=0.5 / ip_ratio=1.40 / pb_ratio=1.30 / aq=1 / aq-strength=0.85 / aq-sensitivity=10.00 / aq-ifactor=1.00 / aq-pfactor=1.00 / aq-bfactor=1.00 / aq2=0
Язык : Japanese
Default : Да
Forced : Нет
Аудио #1
Идентификатор : 2
Формат : AC-3
Формат/Информация : Audio Coding 3
Расширение режима : CM (complete main)
Параметр Endianness формата : Big
Идентификатор кодека : A_AC3
Продолжительность : 2 ч. 0 м.
Вид битрейта : Постоянный
Битрейт : 192 Кбит/сек
Каналы : 2 канала
Расположение каналов : Front: L R
Частота : 48,0 КГц
Битовая глубина : 16 бит
Метод сжатия : С потерями
Размер потока : 165 Мбайт (2%)
Заголовок : DVO (2D)
Язык : Russian
Default : Да
Forced : Нет
Аудио #2
Идентификатор : 3
Формат : DTS
Формат/Информация : Digital Theater Systems
Режим : 16
Параметр Endianness формата : Big
Идентификатор кодека : A_DTS
Продолжительность : 2 ч. 0 м.
Вид битрейта : Постоянный
Битрейт : 1509 Кбит/сек
Каналы : 6 каналов
Расположение каналов : Front: L C R, Side: L R, LFE
Частота : 48,0 КГц
Битовая глубина : 24 бит
Метод сжатия : С потерями
Размер потока : 1,27 Гбайт (13%)
Заголовок : Original
Язык : Japanese
Default : Нет
Forced : Нет
Текст
Идентификатор : 4
Формат : ASS
Идентификатор кодека : S_TEXT/ASS
Идентификатор кодека/Информация : Advanced Sub Station Alpha
Метод сжатия : Без потерь
Язык : Chinese
Default : Нет
Forced : Нет
Меню
00:00:00.000 : en:00:00:00.000
00:14:52.933 : en:00:14:52.933
00:26:13.697 : en:00:26:13.697
00:36:27.059 : en:00:36:27.059
00:46:17.983 : en:00:46:17.983
00:56:47.278 : en:00:56:47.278
01:05:56.744 : en:01:05:56.744
01:10:58.963 : en:01:10:58.963
01:21:40.395 : en:01:21:40.395
01:30:15.368 : en:01:30:15.368
01:44:16.333 : en:01:44:16.333
01:54:23.189 : en:01:54:23.189
02:00:08.075 : en:02:00:08.075
Релиз от: FreeRutor by grab777
Video: WiKi
Перевод: Любительский двухголосый [Студия Колобок - 2D по субтитрам akira9]

Релиз от:


_________________
Проголосуй за трекер Открытый торрент трекер - RUS-MEDIA.ORG

Проголосуй Открытый торрент трекер - RUS-MEDIA.ORG


Вернуться к началу
 Профиль Отправить личное сообщение  
 
   Похожие торренты   Автор   Торрент   Размер 
В этой теме нет новых непрочитанных сообщений. Сенсация / Scoop [комедия, криминал, детектив, 2006] HDRip, Mvo

salma3

90 | 8

1.45 ГБ

В этой теме нет новых непрочитанных сообщений. Michelle Thorne - Reporter receives hot sex scoop (2017) HD 1080p

salma3

0 | 0

1.46 ГБ

В этой теме нет новых непрочитанных сообщений. Жертва / Sacrifice [триллер, детектив, 2016] BDRip 1080p, Avo+Sub

salma3

131 | 175

8.2 ГБ

В этой теме нет новых непрочитанных сообщений. Трое / Te3n [Триллер, драма, детектив, 2016] BDRip 1080p, Mvo

salma3

323 | 107

11.38 ГБ

В этой теме нет новых непрочитанных сообщений. Кукла / The Boy [Ужасы, триллер, детектив, 2016] BDRip 1080p, Dub [Лицензия]

salma3

0 | 0

12.13 ГБ

В этой теме нет новых непрочитанных сообщений. Служанка / Agasshi [Драма, мелодрама, детектив, 2016] BDRip 1080p, Dub

salma3

13 | 13

10.98 ГБ

В этой теме нет новых непрочитанных сообщений. Вуаль / The Veil [ужасы, детектив, 2016] BDRip 1080p, Dub [Line]

salma3

18 | 1

6.62 ГБ


Начать новую тему Ответить на тему  [ 1 сообщение ] 




Для Мосгорсуда, Роскомнадзора и рекламодателей:: mosgorsud-torrent[собачка]yandex.ru
cron