Торрент файл
скачать торрент магнет ссылка Добавлен: 16 апр 2017, 11:24
Размер: 9.55 ГБ
Сидеров: 69
Личеров: 30
Статус: (salma3)
Автор

СообщениеДобавлено: 16 апр 2017, 11:24 

Не в сети
Супермодератор
Аватара пользователя
Дата регистрации:
15 фев 2012, 16:44
Возраст: 28
Спасибо: 6468 / 2129
Сообщения: 40730
Год выхода: 1962
Жанр: Вестерн
Режиссер: Сэм Пекинпа

В ролях: Рэндольф Скотт, Джоэл МакКри, Мэриетт Хартли, Рон Старр, Эдгар Бьюканан, Ричард Дж. Армстронг, Джени Джексон, Джеймс Друри, Джон Андерсон, Джон Дэвис Чэндлер, Уоррен Оутс, Бирон Фулгер, Фрэнк Хэгни, Перси Хелтон, Майкл Т. Миклер, Кармен Филлипс

Описание: Бывшему шерифу Стиву Джадду предлагают работу: перевезти золото из высокогорного поселка старателей в банк. Стив предлагает старому другу, Гилу Веструму, поработать вместе с ним. Но Гилу интересней получить больший куш, чем 40 долларов.
Фильм в 1992 году включён в Национальный реестр фильмов Библиотеки Конгресса как имеющий культурное, историческое или эстетическое значение.



Страна: США
Продолжительность: 01:33:49
Перевод: Профессиональный (многоголосый закадровый)
Перевод: Авторский (одноголосый закадровый) Петр Карцев
Cубтитры: Английские

Файл
Качество: BDRip 1080p
Формат: MKV
Видео кодек: H264
Аудио кодек: AC3
Видео: MPEG4 Video (H264), 1920x800, 23.976fps, 14.0 Mbps
Аудио #1: Русский - Dolby AC3, 48000 Hz, 2ch, 192 kbps - многоголосый
Аудио #2: Русский - Dolby AC3, 48000 Hz, 2ch, 192 kbps - одноголосый, Петр Карцев
Аудио #3: Английский - Dolby AC3, 48000 Hz, 2ch, 192 kbps
Формат субтитров: Softsub (SRT)
Источник -
Сэмпл
General
Unique ID : 175380809611713365306246282320936476422 (0x83F11D83A8B6FC38A365A9932E889F06)
Complete name : D:Torrent 21962.Skachi.likko.mkv
Format : Matroska
Format version : Version 4 / Version 2
File size : 9.55 GiB
Duration : 1 h 33 min
Overall bit rate : 14.6 Mb/s
Movie name : 1962 Скачи по высокогорью/likko
Encoded date : UTC 2017-04-14 16:24:48
Writing application : mkvmerge v8.3.0 ('Over the Horizon') 64bit
Writing library : libebml v1.3.1 + libmatroska v1.4.2
Video
ID : 1
Format : AVC
Format/Info : Advanced Video Codec
Format profile : High@L4.1
Format settings, CABAC : Yes
Format settings, ReFrames : 5 frames
Codec ID : V_MPEG4/ISO/AVC
Duration : 1 h 33 min
Bit rate : 14.0 Mb/s
Width : 1 920 pixels
Height : 800 pixels
Display aspect ratio : 2.40:1
Frame rate mode : Constant
Frame rate : 23.976 (24000/1001) FPS
Color space : YUV
Chroma subsampling : 4:2:0
Bit depth : 8 bits
Scan type : Progressive
Bits/(Pixel*Frame) : 0.380
Stream size : 9.17 GiB (96%)
Title : 1962 Скачи по высокогорью
Writing library : x264 core 146 r2538 121396c
Encoding settings : cabac=1 / ref=5 / deblock=1:-1:-1 / analyse=0x3:0x133 / me=umh / subme=11 / psy=1 / psy_rd=1.07:0.15 / mixed_ref=1 / me_range=32 / chroma_me=1 / trellis=2 / 8x8dct=1 / cqm=0 / deadzone=21,11 / fast_pskip=0 / chroma_qp_offset=-3 / threads=12 / lookahead_threads=3 / sliced_threads=0 / nr=0 / decimate=1 / interlaced=0 / bluray_compat=0 / constrained_intra=0 / bframes=12 / b_pyramid=2 / b_adapt=2 / b_bias=0 / direct=3 / weightb=1 / open_gop=0 / weightp=2 / keyint=250 / keyint_min=23 / scenecut=40 / intra_refresh=0 / rc=2pass / mbtree=0 / bitrate=14000 / ratetol=1.0 / qcomp=0.60 / qpmin=0 / qpmax=69 / qpstep=4 / cplxblur=20.0 / qblur=0.5 / ip_ratio=1.40 / pb_ratio=1.30 / aq=1:1.00
Language : English
Default : Yes
Forced : No
Audio #1
ID : 2
Format : AC-3
Format/Info : Audio Coding 3
Format settings, Endianness : Big
Codec ID : A_AC3
Duration : 1 h 33 min
Bit rate mode : Constant
Bit rate : 192 kb/s
Channel(s) : 2 channels
Channel positions : Front: L R
Sampling rate : 48.0 kHz
Frame rate : 31.250 FPS (1536 spf)
Bit depth : 16 bits
Compression mode : Lossy
Stream size : 129 MiB (1%)
Title : Многоголосый
Language : Russian
Service kind : Complete Main
Default : Yes
Forced : No
Audio #2
ID : 3
Format : AC-3
Format/Info : Audio Coding 3
Format settings, Endianness : Big
Codec ID : A_AC3
Duration : 1 h 33 min
Bit rate mode : Constant
Bit rate : 192 kb/s
Channel(s) : 2 channels
Channel positions : Front: L R
Sampling rate : 48.0 kHz
Frame rate : 31.250 FPS (1536 spf)
Bit depth : 16 bits
Compression mode : Lossy
Stream size : 129 MiB (1%)
Title : Одноголосый, Петр Карцев
Language : Russian
Service kind : Complete Main
Default : No
Forced : No
Audio #3
ID : 4
Format : AC-3
Format/Info : Audio Coding 3
Format settings, Endianness : Big
Codec ID : A_AC3
Duration : 1 h 33 min
Bit rate mode : Constant
Bit rate : 192 kb/s
Channel(s) : 2 channels
Channel positions : Front: L R
Sampling rate : 48.0 kHz
Frame rate : 31.250 FPS (1536 spf)
Bit depth : 16 bits
Compression mode : Lossy
Stream size : 129 MiB (1%)
Language : English
Service kind : Complete Main
Default : No
Forced : No
Text
ID : 5
Format : UTF-8
Codec ID : S_TEXT/UTF8
Codec ID/Info : UTF-8 Plain Text
Duration : 1 h 31 min
Bit rate : 53 b/s
Count of elements : 899
Stream size : 36.1 KiB (0%)
Language : English
Default : No
Forced : No
Menu
00:00:00.000 : en:Chapter 01
00:01:34.344 : en:Chapter 02
00:07:19.939 : en:Chapter 03
00:11:31.273 : en:Chapter 04
00:16:02.670 : en:Chapter 05
00:19:06.645 : en:Chapter 06
00:23:27.781 : en:Chapter 07
00:29:11.541 : en:Chapter 08
00:34:43.581 : en:Chapter 09
00:40:56.036 : en:Chapter 10
00:46:08.390 : en:Chapter 11
00:50:51.006 : en:Chapter 12
00:54:38.817 : en:Chapter 13
00:59:01.621 : en:Chapter 14
01:02:55.480 : en:Chapter 15
01:07:59.575 : en:Chapter 16
01:11:12.977 : en:Chapter 17
01:12:39.813 : en:Chapter 18
01:18:52.894 : en:Chapter 19
01:22:55.762 : en:Chapter 20
01:25:53.898 : en:Chapter 21
01:28:58.541 : en:Chapter 22
01:31:39.160 : en:Chapter 23
01:33:47.955 : en:Chapter 24





_________________
Проголосуй за трекер Открытый торрент трекер - RUS-MEDIA.ORG

Проголосуй Открытый торрент трекер - RUS-MEDIA.ORG



реклама партнёра


Вернуться к началу
 Профиль Отправить личное сообщение  
 
   Похожие торренты   Автор   Торрент   Размер 
В этой теме нет новых непрочитанных сообщений. Скачи во весь опор! / Let it ride [комедия, 1989] WEB-DLRip, Mvo

salma3

51 | 12

1.45 ГБ

В этой теме нет новых непрочитанных сообщений. Побег в никуда / Ride in the Whirlwind [вестерн, 1966] BDRip 1080p, Mvo+Sub

salma3

49 | 42

7.12 ГБ

В этой теме нет новых непрочитанных сообщений. Побег в никуда / Ride in the Whirlwind [Вестерн, 1966] BDRip-AVC, Mvo+Sub

salma3

40 | 25

1.46 ГБ

В этой теме нет новых непрочитанных сообщений. Одинокие отважны / Lonely are the brave [драма, вестерн, 1962] BDRemux 1080p, Avo+Sub

salma3

32 | 11

12.95 ГБ

В этой теме нет новых непрочитанных сообщений. Война на Диком Западе / How the West Was Won [вестерн, 1962] BDRip 720p, Mvo

salma3

136 | 50

5.56 ГБ

В этой теме нет новых непрочитанных сообщений. Погоня с Дьяволом / Ride with the Devil [Драма, мелодрама, вестерн, военный, 1999] BDRip 720р, Mvo+Sub

salma3

70 | 24

7.07 ГБ

В этой теме нет новых непрочитанных сообщений. Любой ценой / Hell or High Water ( драма, криминал, вестерн, 2016) BDRip | D, A | Лицензия

marya111

101 | 6

2.06 ГБ


Начать новую тему Ответить на тему  [ 1 сообщение ] 




Для Мосгорсуда, Роскомнадзора и рекламодателей:: mosgorsud-torrent[собачка]yandex.ru