Торрент файл
скачать торрент магнет ссылка Добавлен: 13 апр 2017, 11:19
Размер: 4.49 ГБ
Сидеров: 32
Личеров: 22
Статус: (salma3)
Автор

СообщениеДобавлено: 13 апр 2017, 11:19 

Не в сети
Супермодератор
Аватара пользователя
Дата регистрации:
15 фев 2012, 16:44
Возраст: 28
Спасибо: 7290 / 2147
Сообщения: 70396
Год выхода: 1996
Жанр: комедия
Режиссер: Нери Паренти

В ролях: Паоло Вилладжо, Милена Вукотич, Маурицио Антонини, Анджело Бернабуччи, Тони Бреннеро, Акилле Бруньини, Анна Маццамауро, Джанни Франко, Джиджи Редер, Джулио Массимини, Джулиано Чизелли, Биг Джимми, Маурицио Маттиоли, Паоло Паолони, Нери Паренти, Нелло Риви, Фабио Траверса, Антонио Аллокка, Альберто Колаианни, Пьеро Вивальди, Вальтер Нудо

О фильме:
Фантоцци не может жить без приключений. В этой серии внучку Фантоцци похищают, требуя выкуп, Фантоцци бросается на ее поиски; наговаривает в сексе по телефону огромные суммы; синьора Сильвани хочет сделать пластическую операцию и под видом беременной от него, Фантоцци требует денег; бухгалтера сажают в тюрьму…



Страна: Италия
Продолжительность: 01:34:36
Перевод: Профессиональный [многоголосый], Любительский [одноголосый]

Файл
Кодек: h.264
Качество: HDTVRip 720р
Видео: 1232x706, ~6085 Kbps, 25.000 fps
Звук 1: AC3, 2 ch, 256 kbps | Профессиональный (многоголосый закадровый) 100ТВ
Звук 2: AC3, 2 ch, 256 kbps | Любительский (одноголосый закадровый)
Звук 3: AC3, 2 ch, 192 kbps | Итальянский

General
Unique ID : 202039258703065725910468943970373319143 (0x97FF58882BC188EFBD7EF0DC6F41B9E7)
Complete name : D:FantozziFantozzi - Il ritorno by D_I_A_B_L_O.mkv
Format : Matroska
File size : 4.49 GiB
Duration : 1h 34mn
Overall bit rate : 6 791 Kbps
Movie name : Возвращение Фантоцци by D_I_A_B_L_O
Encoded date : UTC 2016-11-04 09:21:54
Writing application : mkvmerge v7.2.0 ('On Every Street') 64bit built on Sep 13 2014 15:52:10
Writing library : libebml v1.3.0 + libmatroska v1.4.1
Video
ID : 1
Format : AVC
Format/Info : Advanced Video Codec
Format profile : High@L3.1
Format settings, CABAC : Yes
Format settings, ReFrames : 5 frames
Codec ID : V_MPEG4/ISO/AVC
Duration : 1h 34mn
Bit rate : 6 085 Kbps
Width : 1 232 pixels
Height : 706 pixels
Display aspect ratio : 16:9
Frame rate : 25.000 fps
Color space : YUV
Chroma subsampling : 4:2:0
Bit depth : 8 bits
Scan type : Progressive
Bits/(Pixel*Frame) : 0.280
Stream size : 3.93 GiB (88%)
Writing library : x264 core 148 r2638 7599210
Encoding settings : cabac=1 / ref=5 / deblock=1:0:0 / analyse=0x3:0x133 / me=umh / subme=7 / psy=1 / psy_rd=1.00:0.00 / mixed_ref=1 / me_range=32 / chroma_me=1 / trellis=2 / 8x8dct=1 / cqm=0 / deadzone=21,11 / fast_pskip=0 / chroma_qp_offset=-2 / threads=6 / lookahead_threads=1 / sliced_threads=0 / nr=0 / decimate=1 / interlaced=0 / bluray_compat=0 / constrained_intra=0 / bframes=3 / b_pyramid=2 / b_adapt=2 / b_bias=0 / direct=1 / weightb=1 / open_gop=0 / weightp=2 / keyint=240 / keyint_min=23 / scenecut=40 / intra_refresh=0 / rc_lookahead=40 / rc=2pass / mbtree=1 / bitrate=6085 / ratetol=2.5 / qcomp=0.50 / qpmin=0 / qpmax=69 / qpstep=4 / cplxblur=20.0 / qblur=0.5 / ip_ratio=1.40 / aq=1:1.00
Language : Russian
Audio #1
ID : 2
Format : AC-3
Format/Info : Audio Coding 3
Mode extension : CM (complete main)
Codec ID : A_AC3
Duration : 1h 34mn
Bit rate mode : Constant
Bit rate : 256 Kbps
Channel(s) : 2 channels
Channel positions : Front: L R
Sampling rate : 48.0 KHz
Bit depth : 16 bits
Compression mode : Lossy
Stream size : 173 MiB (4%)
Title : 100ТВ
Language : Russian
Audio #2
ID : 3
Format : AC-3
Format/Info : Audio Coding 3
Mode extension : CM (complete main)
Codec ID : A_AC3
Duration : 1h 34mn
Bit rate mode : Constant
Bit rate : 256 Kbps
Channel(s) : 2 channels
Channel positions : Front: L R
Sampling rate : 48.0 KHz
Bit depth : 16 bits
Compression mode : Lossy
Stream size : 173 MiB (4%)
Title : Неизвестный боец
Language : Russian
Audio #3
ID : 4
Format : AC-3
Format/Info : Audio Coding 3
Mode extension : CM (complete main)
Codec ID : A_AC3
Duration : 1h 34mn
Bit rate mode : Constant
Bit rate : 192 Kbps
Channel(s) : 2 channels
Channel positions : Front: L R
Sampling rate : 48.0 KHz
Bit depth : 16 bits
Compression mode : Lossy
Stream size : 130 MiB (3%)
Title : Оригинал
Language : Italian

Релиз от: by D_I_A_B_L_O


_________________
Проголосуй за трекер Открытый торрент трекер - RUS-MEDIA.ORG

Проголосуй Открытый торрент трекер - RUS-MEDIA.ORG


Вернуться к началу
 Профиль Отправить личное сообщение  
 
   Похожие торренты   Автор   Торрент   Размер 
В этой теме нет новых непрочитанных сообщений. Возвращение Фантоцци / Fantozzi - Il ritorno [Комедия, 1996] DVDRip-AVC, Mvo

salma3

61 | 10

3.1 ГБ

В этой теме нет новых непрочитанных сообщений. Фантоцци / Fantozzi [Комедия, 1975] DVDRip-AVC, Mvo

salma3

188 | 40

3.54 ГБ

В этой теме нет новых непрочитанных сообщений. Фантоцци в раю / Fantozzi in paradiso [Комедия, 1993] DVDRip-AVC, Mvo

salma3

124 | 26

3.07 ГБ

В этой теме нет новых непрочитанных сообщений. Фантоцци уходит на пенсию / Fantozzi va in pensione [Комедия, 1988] DVDRip-AVC, Mvo

salma3

113 | 69

3.64 ГБ

В этой теме нет новых непрочитанных сообщений. Второй трагический Фантоцци / Il secondo tragico Fantozzi [Комедия, 1976] DVDRip-AVC, Mvo

salma3

138 | 31

3.68 ГБ

В этой теме нет новых непрочитанных сообщений. Фантоцци берет реванш / Fantozzi alla riscossa [Комедия, 1990] DVDRip-AVC, Mvo

salma3

105 | 27

3.34 ГБ

В этой теме нет новых непрочитанных сообщений. У Фантоцци опять неприятности / Fantozzi subisce ancora [Комедия, 1983] DVDRip-AVC, Mvo

salma3

109 | 53

3.4 ГБ


Начать новую тему Ответить на тему  [ 1 сообщение ] 




Для Мосгорсуда, Роскомнадзора и рекламодателей:: mosgorsud-torrent[собачка]yandex.ru
cron