Торрент файл
скачать торрент магнет ссылка Добавлен: 10 апр 2017, 16:07
Размер: 6.82 ГБ
Сидеров: 82
Личеров: 21
Статус: (salma3)
Автор

СообщениеДобавлено: 10 апр 2017, 16:07 

Не в сети
Супермодератор
Аватара пользователя
Дата регистрации:
15 фев 2012, 16:44
Возраст: 29
Спасибо: 7319 / 2147
Сообщения: 73191
Год выхода: 2014
Жанр: мелодрама, комедия
Режиссер: Макс Николс

В ролях: Майлз Теллер, Анали Типтон, Джессика Зор, Скотт Мескади, Берто Колон, Джош Салатин, Келлин Линдсэй, Майкл Шоуолтер, Ливэн Рамбин, Джои Лорен Эдамс

О фильме:
Девушка застряла дома у парня на целый день из-за ужасного снежного шторма. Благодаря этому несчастному случаю молодые люди получают возможность познакомиться поближе.



Страна: США
Продолжительность: 01:26:13
Перевод: профессиональный [многоголосный, закадровый]

Файл
Кодек: H.264
Качество: BDRip 1080p
Видео: MPEG-4 / AVC, 1920x808 (2.40 :1), 23.976 fps ~ 9415 Kbps
Звук:
AC3, 48 KHz 6 ch ~ 448 Kb/s (русский)
DTS, 48 KHz 6 ch ~ 1510 Kb/s (английский)
Субтитры: английские

Семпл

Общее
Уникальный идентификатор : 228457699444048184853084313766697975062 (0xABDF5A3969074483AE10D9A8A4E93D16)
Полное имя : Q:TorFTwo.Night.Stand.2014.P.BDRip.1080p.mkv
Формат : Matroska
Версия формата : Version 4 / Version 2
Размер файла : 6,82 Гбайт
Продолжительность : 1 ч. 26 м.
Общий поток : 11,3 Мбит/сек
Дата кодирования : UTC 2015-01-14 13:44:53
Программа кодирования : mkvmerge v6.9.1 ('Blue Panther') 64bit built on Apr 18 2014 18:23:38
Библиотека кодирования : libebml v1.3.0 + libmatroska v1.4.1

Видео
Идентификатор : 1
Формат : AVC
Формат/Информация : Advanced Video Codec
Профиль формата : High@L4.1
Параметр CABAC формата : Да
Параметр ReFrames формата : 5 кадров
Идентификатор кодека : V_MPEG4/ISO/AVC
Продолжительность : 1 ч. 26 м.
Битрейт : 9415 Кбит/сек
Ширина : 1920 пикселей
Высота : 808 пикселей
Соотношение сторон : 2,40:1
Частота кадров : 23,976 кадра/сек
Цветовое пространство : YUV
Субдискретизация насыщенности : 4:2:0
Битовая глубина : 8 бит
Тип развёртки : Прогрессивная
Бит/(Пиксели*Кадры) : 0.253
Размер потока : 5,51 Гбайт (81%)
Библиотека кодирования : x264 core 144 r2525 40bb568
Настройки программы : cabac=1 / ref=5 / deblock=1:-3:-3 / analyse=0x3:0x113 / me=umh / subme=8 / psy=1 / psy_rd=1.00:0.00 / mixed_ref=1 / me_range=16 / chroma_me=1 / trellis=1 / 8x8dct=1 / cqm=0 / deadzone=21,11 / fast_pskip=1 / chroma_qp_offset=-2 / threads=12 / lookahead_threads=2 / sliced_threads=0 / nr=0 / decimate=1 / interlaced=0 / bluray_compat=0 / constrained_intra=0 / bframes=3 / b_pyramid=2 / b_adapt=2 / b_bias=0 / direct=3 / weightb=1 / open_gop=0 / weightp=2 / keyint=240 / keyint_min=24 / scenecut=40 / intra_refresh=0 / rc_lookahead=50 / rc=2pass / mbtree=1 / bitrate=9415 / ratetol=1.0 / qcomp=0.60 / qpmin=0 / qpmax=69 / qpstep=4 / cplxblur=20.0 / qblur=0.5 / ip_ratio=1.40 / aq=1:1.00
Язык : English
Default : Да
Forced : Нет

Аудио #1
Идентификатор : 2
Формат : AC-3
Формат/Информация : Audio Coding 3
Расширение режима : CM (complete main)
Идентификатор кодека : A_AC3
Продолжительность : 1 ч. 26 м.
Вид битрейта : Постоянный
Битрейт : 448 Кбит/сек
Каналы : 6 каналов
Расположение каналов : Front: L C R, Side: L R, LFE
Частота : 48,0 КГц
Битовая глубина : 16 бит
Метод сжатия : С потерями
Размер потока : 276 Мбайт (4%)
Язык : Russian
Default : Да
Forced : Нет

Аудио #2
Идентификатор : 3
Формат : DTS
Формат/Информация : Digital Theater Systems
Идентификатор кодека : A_DTS
Продолжительность : 1 ч. 26 м.
Вид битрейта : Постоянный
Битрейт : 1510 Кбит/сек
Каналы : 6 каналов
Расположение каналов : Front: L C R, Side: L R, LFE
Частота : 48,0 КГц
Битовая глубина : 24 бит
Метод сжатия : С потерями
Размер потока : 931 Мбайт (13%)
Язык : English
Default : Нет
Forced : Нет

Текст #1
Идентификатор : 4
Формат : UTF-8
Идентификатор кодека : S_TEXT/UTF8
Идентификатор кодека/Информация : UTF-8 Plain Text
Заголовок : SDH
Язык : English
Default : Нет
Forced : Нет

Текст #2
Идентификатор : 5
Формат : UTF-8
Идентификатор кодека : S_TEXT/UTF8
Идентификатор кодека/Информация : UTF-8 Plain Text
Язык : English
Default : Нет
Forced : Нет

Меню
00:00:00.000 : en:00:00:00.000
00:06:14.916 : en:00:06:14.916
00:12:50.853 : en:00:12:50.853
00:17:19.163 : en:00:17:19.163
00:19:59.532 : en:00:19:59.532
00:22:58.460 : en:00:22:58.460
00:26:52.027 : en:00:26:52.027
00:32:10.512 : en:00:32:10.512
00:37:00.468 : en:00:37:00.468
00:47:30.389 : en:00:47:30.389
00:53:22.074 : en:00:53:22.074
01:02:39.965 : en:01:02:39.965
01:05:50.780 : en:01:05:50.780
01:12:04.695 : en:01:12:04.695
01:16:28.834 : en:01:16:28.834
01:22:20.060 : en:01:22:20.060


_________________
Проголосуй за трекер Открытый торрент трекер - RUS-MEDIA.ORG

Проголосуй Открытый торрент трекер - RUS-MEDIA.ORG


Вернуться к началу
 Профиль Отправить личное сообщение  
 
   Похожие торренты   Автор   Торрент   Размер 
В этой теме нет новых непрочитанных сообщений. Секс на две ночи / Любовь с первого взгляда / Two Night Stand [комедия, мелодрама, 2014] BDRip, Mvo

salma3

102 | 48

1.71 ГБ

В этой теме нет новых непрочитанных сообщений. С первого взгляда / At First Sight [Мелодрама, драма, 1999] BDRip 1080р, Dub

salma3

3 | 1

12.88 ГБ

В этой теме нет новых непрочитанных сообщений. Любовь с первого взгляда / Love at First Glance (Кевин Коннор / Kevin Connor) [2017г., драма, HDTVRip] MVO

Alfredovich

0 | 0

1.37 ГБ

В этой теме нет новых непрочитанных сообщений. С первого взгляда / At First Sight [драма, мелодрама, 1999] HDRip, Dvo [НТВ+]

salma3

83 | 33

1.45 ГБ

В этой теме нет новых непрочитанных сообщений. С первого взгляда / At First Sight [Мелодрама, драма, 1999] HDRip, Dub

salma3

20 | 8

1.38 ГБ

В этой теме нет новых непрочитанных сообщений. Свидание на одну ночь / One Night Stand [Мелодрама, 1997] WEB-DL 1080p, Mvo+Dvo+Sub

salma3

0 | 7

7.4 ГБ

В этой теме нет новых непрочитанных сообщений. Любовь с ограничениями [комедия, мелодрама, 2016] BDRip 1080p [Лицензия]

salma3

30 | 4

5.83 ГБ


Начать новую тему Ответить на тему  [ 1 сообщение ] 




Для Мосгорсуда, Роскомнадзора и рекламодателей:: mosgorsud-torrent[собачка]yandex.ru
cron