Торрент файл
скачать торрент магнет ссылка Добавлен: 08 апр 2017, 11:49
Размер: 3.35 ГБ
Сидеров: 0
Личеров: 0
Статус: (salma3)
Автор

СообщениеДобавлено: 08 апр 2017, 11:49 

Не в сети
Супермодератор
Аватара пользователя
Дата регистрации:
15 фев 2012, 16:44
Возраст: 28
Спасибо: 7203 / 2147
Сообщения: 65002
Год выхода: 2015
Жанр: Мелодрама, комедия
Режиссер: Эмили Тинг

В ролях: Джейми Чанг, Брайан Гринберг, Ричард Нг, Сара Лиан, Лоуренс С. Дикерсон, Коллин Лейдон, По-Чин Леонг, Гарри Ду Янг, Эмили Тинг, Джош Силфен

О фильме:
Когда китайско-американская девушка посещает Гонконг, она встречает американского эмигранта. Романтические разговоры и прогулки дарит паре великолепный город Гонконг. Фильм задаёт вопрос - что случается, когда встречаешь "своего" человека не в то время



Страна: США, Гонконг
Продолжительность: 01:18:27
Перевод: Профессиональный [двухголосый, закадровый]

Файл
Кодек: h.264
Качество: BDRip 720p
Видео: MPEG-4 AVC, 5208 Кбит/с, 1280x720, 23,976 кадр/с
Звук1: Русский (AC3, 6 ch, 448 Кбит/с) / Профессиональный двухголосый
Звук2: Английский (AC3, 6 ch, 448 Кбит/с)

Семпл

Автор релиза - Silverok, за BDRemux спасибо marchelush
Сохранены оригинальные чаптеры как на Blu-ray
---[Information] [05.04.2017 22:32:19] x264 [info]: frame I:45 Avg QP:15.90 size:117781
---[Information] [05.04.2017 22:32:19] x264 [info]: frame P:563 Avg QP:17.46 size: 52812
---[Information] [05.04.2017 22:32:19] x264 [info]: frame B:1942 Avg QP:18.32 size: 17619
General
Unique ID : 204759418788385176914699987880640596913 (0x9A0B3AC753B25FD980EBB1753EB14BB1)
Complete name : D:uTorrentV.Gonkonge.uzhe.zavtra.2015.BDRip.720p.MediaClub.mkv
Format : Matroska
Format version : Version 4 / Version 2
File size : 3.35 GiB
Duration : 1 h 18 min
Overall bit rate : 6 107 kb/s
Encoded date : UTC 2017-04-06 19:37:14 / UTC 2017-04-06T06:16:14Z
Writing application : mkvmerge v10.0.0 ('To Drown In You') 64bit
Writing library : libebml v1.3.4 + libmatroska v1.4.5 / Lavf57.7.2
Video
ID : 1
Format : AVC
Format/Info : Advanced Video Codec
Format profile : High@L4.1
Format settings, CABAC : Yes
Format settings, ReFrames : 9 frames
Codec ID : V_MPEG4/ISO/AVC
Duration : 1 h 18 min
Bit rate : 5 208 kb/s
Width : 1 280 pixels
Height : 720 pixels
Display aspect ratio : 16:9
Frame rate mode : Constant
Frame rate : 23.976 (24000/1001) FPS
Color space : YUV
Chroma subsampling : 4:2:0
Bit depth : 8 bits
Scan type : Progressive
Bits/(Pixel*Frame) : 0.236
Stream size : 2.79 GiB (83%)
Title : BDRip by Silverok
Writing library : x264 core 148 r2708 86b7198
Encoding settings : cabac=1 / ref=9 / deblock=1:-3:-3 / analyse=0x3:0x113 / me=umh / subme=11 / psy=1 / psy_rd=1.00:0.10 / mixed_ref=1 / me_range=48 / chroma_me=1 / trellis=2 / 8x8dct=1 / cqm=0 / deadzone=21,11 / fast_pskip=1 / chroma_qp_offset=-3 / threads=12 / lookahead_threads=1 / sliced_threads=0 / nr=0 / decimate=0 / interlaced=0 / bluray_compat=0 / constrained_intra=0 / bframes=12 / b_pyramid=2 / b_adapt=1 / b_bias=0 / direct=1 / weightb=1 / open_gop=0 / weightp=2 / keyint=240 / keyint_min=24 / scenecut=40 / intra_refresh=0 / rc_lookahead=40 / rc=2pass / mbtree=1 / bitrate=5208 / ratetol=1.0 / qcomp=0.60 / qpmin=0 / qpmax=69 / qpstep=4 / cplxblur=20.0 / qblur=0.5 / vbv_maxrate=62500 / vbv_bufsize=78125 / nal_hrd=none / filler=0 / ip_ratio=1.40 / aq=1:1.00
Default : Yes
Forced : No
Color range : Limited
Color primaries : BT.709
Transfer characteristics : BT.709
Matrix coefficients : BT.709
Statistics Tags Issue : mkvmerge v10.0.0 ('To Drown In You') 64bit 2017-04-06 19:37:14 / mkvmerge v10.0.0 ('To Drown In You') 64bit 2017-04-06 19:37:14 / UTC 2017-04-06T06:16:14Z
FromStats_BitRate : 5208533
FromStats_Duration : 01:18:27.203000000
FromStats_FrameCount : 112860
FromStats_StreamSize : 3064702949
Audio #1
ID : 2
Format : AC-3
Format/Info : Audio Coding 3
Format settings, Endianness : Big
Codec ID : A_AC3
Duration : 1 h 18 min
Bit rate mode : Constant
Bit rate : 448 kb/s
Channel(s) : 6 channels
Channel positions : Front: L C R, Side: L R, LFE
Sampling rate : 48.0 kHz
Frame rate : 31.250 FPS (1536 spf)
Bit depth : 16 bits
Compression mode : Lossy
Stream size : 251 MiB (7%)
Title : Профессиональный двухголосый
Language : Russian
Service kind : Complete Main
Default : Yes
Forced : No
Statistics Tags Issue : mkvmerge v10.0.0 ('To Drown In You') 64bit 2017-04-06 19:37:14 / mkvmerge v10.0.0 ('To Drown In You') 64bit 2017-04-06 19:37:14 / UTC 2017-04-06T06:16:14Z
FromStats_BitRate : 448000
FromStats_Duration : 01:18:27.232000000
FromStats_FrameCount : 147101
FromStats_StreamSize : 263604992
Audio #2
ID : 3
Format : AC-3
Format/Info : Audio Coding 3
Format settings, Endianness : Big
Codec ID : A_AC3
Duration : 1 h 18 min
Bit rate mode : Constant
Bit rate : 448 kb/s
Channel(s) : 6 channels
Channel positions : Front: L C R, Side: L R, LFE
Sampling rate : 48.0 kHz
Frame rate : 31.250 FPS (1536 spf)
Bit depth : 16 bits
Compression mode : Lossy
Stream size : 251 MiB (7%)
Language : English
Service kind : Complete Main
Default : No
Forced : No
Statistics Tags Issue : mkvmerge v10.0.0 ('To Drown In You') 64bit 2017-04-06 19:37:14 / mkvmerge v10.0.0 ('To Drown In You') 64bit 2017-04-06 19:37:14 / UTC 2017-04-06T06:16:14Z
FromStats_BitRate : 448000
FromStats_Duration : 01:18:27.200000000
FromStats_FrameCount : 147100
FromStats_StreamSize : 263603200
Menu
00:00:00.000 : :Chapter 1
00:05:19.069 : :Chapter 2
00:14:10.683 : :Chapter 3
00:18:05.710 : :Chapter 4
00:23:30.743 : :Chapter 5
00:31:18.043 : :Chapter 6
00:43:54.590 : :Chapter 7
00:52:34.985 : :Chapter 8
01:01:21.970 : :Chapter 9
01:09:00.678 : :Chapter 10

Релиз от: | Silverok


_________________
Проголосуй за трекер Открытый торрент трекер - RUS-MEDIA.ORG

Проголосуй Открытый торрент трекер - RUS-MEDIA.ORG


Вернуться к началу
 Профиль Отправить личное сообщение  
 
   Похожие торренты   Автор   Торрент   Размер 
В этой теме нет новых непрочитанных сообщений. В Гонконге уже завтра / Already Tomorrow in Hong Kong [Мелодрама, комедия, 2015] BDRip, Dvo

salma3

295 | 134

1.46 ГБ

В этой теме нет новых непрочитанных сообщений. В Гонконге уже завтра / Already Tomorrow in Hong Kong [мелодрама, комедия, 2015] WEBDLRip, Dvo

salma3

28 | 4

1.36 ГБ

В этой теме нет новых непрочитанных сообщений. В Гонконге уже завтра / Already Tomorrow in Hong Kong [мелодрама, комедия, 2015] BDRemux 1080p, Dvo+Sub

salma3

4 | 17

17.66 ГБ

В этой теме нет новых непрочитанных сообщений. В Гонконге уже завтра / Already Tomorrow in Hong Kong (Эмили Тинг) [2015, мелодрама, комедия, WEB-DLRip] mvo

PriZraK

127 | 1

1.37 ГБ

В этой теме нет новых непрочитанных сообщений. Графиня из Гонконга / A Countess From Hong Kong [мелодрама, комедия, 1967] BDRip, Mvo

salma3

66 | 22

1.45 ГБ

В этой теме нет новых непрочитанных сообщений. Графиня из Гонконга / A Countess from Hong Kong [мелодрама, комедия, 1967] BDRip 1080p, Mvo

salma3

59 | 19

7.81 ГБ

В этой теме нет новых непрочитанных сообщений. Графиня из Гонконга / A Countess from Hong Kong [мелодрама, комедия, 1967] BDRemux 1080p, Mvo

salma3

26 | 10

20.72 ГБ


Начать новую тему Ответить на тему  [ 1 сообщение ] 




Для Мосгорсуда, Роскомнадзора и рекламодателей:: mosgorsud-torrent[собачка]yandex.ru
cron