Торрент файл
скачать торрент магнет ссылка Добавлен: 06 апр 2017, 20:18
Размер: 8.88 ГБ
Сидеров: 101
Личеров: 31
Статус: (salma3)
Автор

СообщениеДобавлено: 06 апр 2017, 20:18 

В сети
Супермодератор
Аватара пользователя
Дата регистрации:
15 фев 2012, 16:44
Возраст: 28
Спасибо: 6836 / 2147
Сообщения: 49482
Год выпуска: 1999
Жанр: Ужасы, фэнтези
Режиссер: Джек Шолдер

В ролях: Эндрю Дивофф, Холли Филдс, Пол Йоханссон, Букем Вудбайн, Том ’Тайни’ Листер мл., Крис Вебер, Аль Фостер, Вито Руджинис, Рэнди Холл, Мария Дженнаро

Описание: Во время неудачного ограбления, молодая воровка Моргана выпускает древнего злого Джина. Он садится в тюрьму вместо нее, чтобы выполнять безумные желания заключенных в обмен на их души. А сама Моргана должна загадать лишь три желания, чтобы Джин смог захватить Землю и уничтожить человечество…



Страна: США
Продолжительность: 01:36:02
Перевод: Профессиональный (многоголосый закадровый) DVD Групп
Перевод: Профессиональный (двухголосый закадровый) ТВ6
Перевод: Авторский (одноголосый закадровый) Ю. Сербин
Перевод: Авторский (одноголосый закадровый) С. Визгунов

Качество: BDRip 1080p
Видео: MPEG4 Video (H264), 1920x1040, 23.976fps, 11.0 Mbps
Аудио #1: Русский - Dolby AC3, 48000 Hz, 6ch, 448 kbps - многоголосый, DVD Group
Аудио #2: Русский - Dolby AC3, 48000 Hz, 6ch, 448 kbps - двухголосый, ТВ6
Аудио #3: Русский - Dolby AC3, 48000 Hz, 6ch, 448 kbps - одноголосый, Ю. Сербин
Аудио #4: Русский - Dolby AC3, 48000 Hz, 6ch, 448 kbps - одноголосый, С. Визгунов
Аудио #5: Английский - Dolby AC3, 48000 Hz, 6ch, 448 kbps
Cубтитры: Русские, английские SDH
Формат субтитров: Softsub (SRT)

Сэмпл

General
Unique ID : 212704513326651073338659748797331676337 (0xA005662ED6DCDF89AB6CF1AABA9A1CB1)
Complete name : D:Torrent 21999.Wishmaster.2.likko.mkv
Format : Matroska
Format version : Version 4 / Version 2
File size : 8.88 GiB
Duration : 1 h 36 min
Overall bit rate : 13.2 Mb/s
Movie name : 1999 Исполнитель желаний 2/likko
Encoded date : UTC 2017-04-06 14:26:56
Writing application : mkvmerge v8.3.0 ('Over the Horizon') 64bit
Writing library : libebml v1.3.1 + libmatroska v1.4.2

Video
ID : 1
Format : AVC
Format/Info : Advanced Video Codec
Format profile : High@L4.1
Format settings, CABAC : Yes
Format settings, ReFrames : 4 frames
Codec ID : V_MPEG4/ISO/AVC
Duration : 1 h 36 min
Bit rate : 11.0 Mb/s
Width : 1 920 pixels
Height : 1 040 pixels
Display aspect ratio : 1.85:1
Frame rate mode : Constant
Frame rate : 23.976 (24000/1001) FPS
Color space : YUV
Chroma subsampling : 4:2:0
Bit depth : 8 bits
Scan type : Progressive
Bits/(Pixel*Frame) : 0.230
Stream size : 7.37 GiB (83%)
Title : 1999 Исполнитель желаний 2
Writing library : x264 core 146 r2538 121396c
Encoding settings : cabac=1 / ref=4 / deblock=1:-1:-1 / analyse=0x3:0x133 / me=umh / subme=11 / psy=1 / psy_rd=1.07:0.15 / mixed_ref=1 / me_range=32 / chroma_me=1 / trellis=2 / 8x8dct=1 / cqm=0 / deadzone=21,11 / fast_pskip=0 / chroma_qp_offset=-3 / threads=12 / lookahead_threads=3 / sliced_threads=0 / nr=0 / decimate=1 / interlaced=0 / bluray_compat=0 / constrained_intra=0 / bframes=10 / b_pyramid=2 / b_adapt=2 / b_bias=0 / direct=3 / weightb=1 / open_gop=0 / weightp=2 / keyint=250 / keyint_min=23 / scenecut=40 / intra_refresh=0 / rc=2pass / mbtree=0 / bitrate=11000 / ratetol=1.0 / qcomp=0.60 / qpmin=0 / qpmax=69 / qpstep=4 / cplxblur=20.0 / qblur=0.5 / ip_ratio=1.40 / pb_ratio=1.30 / aq=1:1.00
Language : English
Default : Yes
Forced : No

Audio #1
ID : 2
Format : AC-3
Format/Info : Audio Coding 3
Format settings, Endianness : Big
Codec ID : A_AC3
Duration : 1 h 36 min
Bit rate mode : Constant
Bit rate : 448 kb/s
Channel(s) : 6 channels
Channel positions : Front: L C R, Side: L R, LFE
Sampling rate : 48.0 kHz
Frame rate : 31.250 FPS (1536 spf)
Bit depth : 16 bits
Compression mode : Lossy
Stream size : 308 MiB (3%)
Title : Многоголосый, DVD Group
Language : Russian
Service kind : Complete Main
Default : No
Forced : No

Audio #2
ID : 3
Format : AC-3
Format/Info : Audio Coding 3
Format settings, Endianness : Big
Codec ID : A_AC3
Duration : 1 h 36 min
Bit rate mode : Constant
Bit rate : 448 kb/s
Channel(s) : 6 channels
Channel positions : Front: L C R, Side: L R, LFE
Sampling rate : 48.0 kHz
Frame rate : 31.250 FPS (1536 spf)
Bit depth : 16 bits
Compression mode : Lossy
Stream size : 308 MiB (3%)
Title : Двухголосый, ТВ6
Language : Russian
Service kind : Complete Main
Default : No
Forced : No

Audio #3
ID : 4
Format : AC-3
Format/Info : Audio Coding 3
Format settings, Endianness : Big
Codec ID : A_AC3
Duration : 1 h 36 min
Bit rate mode : Constant
Bit rate : 448 kb/s
Channel(s) : 6 channels
Channel positions : Front: L C R, Side: L R, LFE
Sampling rate : 48.0 kHz
Frame rate : 31.250 FPS (1536 spf)
Bit depth : 16 bits
Compression mode : Lossy
Stream size : 308 MiB (3%)
Title : Одноголосый, Ю. Сербин
Language : Russian
Service kind : Complete Main
Default : No
Forced : No

Audio #4
ID : 5
Format : AC-3
Format/Info : Audio Coding 3
Format settings, Endianness : Big
Codec ID : A_AC3
Duration : 1 h 36 min
Bit rate mode : Constant
Bit rate : 448 kb/s
Channel(s) : 6 channels
Channel positions : Front: L C R, Side: L R, LFE
Sampling rate : 48.0 kHz
Frame rate : 31.250 FPS (1536 spf)
Bit depth : 16 bits
Compression mode : Lossy
Stream size : 308 MiB (3%)
Title : Одноголосый, С. Визгунов
Language : Russian
Service kind : Complete Main
Default : No
Forced : No

Audio #5
ID : 6
Format : AC-3
Format/Info : Audio Coding 3
Format settings, Endianness : Big
Codec ID : A_AC3
Duration : 1 h 36 min
Bit rate mode : Constant
Bit rate : 448 kb/s
Channel(s) : 6 channels
Channel positions : Front: L C R, Side: L R, LFE
Sampling rate : 48.0 kHz
Frame rate : 31.250 FPS (1536 spf)
Bit depth : 16 bits
Compression mode : Lossy
Stream size : 308 MiB (3%)
Language : English
Service kind : Complete Main
Default : No
Forced : No

Text #1
ID : 7
Format : UTF-8
Codec ID : S_TEXT/UTF8
Codec ID/Info : UTF-8 Plain Text
Duration : 1 h 30 min
Bit rate : 75 b/s
Count of elements : 950
Stream size : 49.6 KiB (0%)
Language : Russian
Default : No
Forced : No

Text #2
ID : 8
Format : UTF-8
Codec ID : S_TEXT/UTF8
Codec ID/Info : UTF-8 Plain Text
Duration : 1 h 34 min
Bit rate : 49 b/s
Count of elements : 1093
Stream size : 34.0 KiB (0%)
Language : English
Default : No
Forced : No

Menu
00:00:00.000 : en:Chapter 1
00:09:49.000 : en:Chapter 2
00:17:42.000 : en:Chapter 3
00:27:14.000 : en:Chapter 4
00:36:26.000 : en:Chapter 5
00:46:03.000 : en:Chapter 6
00:55:42.000 : en:Chapter 7
01:05:49.000 : en:Chapter 8
01:14:00.000 : en:Chapter 9
01:24:02.000 : en:Chapter 10
01:32:31.000 : en:Chapter 11



_________________
Проголосуй за трекер Открытый торрент трекер - RUS-MEDIA.ORG

Проголосуй Открытый торрент трекер - RUS-MEDIA.ORG



реклама партнёра


Вернуться к началу
 Профиль Отправить личное сообщение  
 
   Похожие торренты   Автор   Торрент   Размер 
В этой теме нет новых непрочитанных сообщений. Исполнитель желаний / Wishmaster [Ужасы, фэнтези, 1997] BDRip 1080p, Mvo+Avo+Sub

salma3

38 | 12

8.71 ГБ

В этой теме нет новых непрочитанных сообщений. Исполнитель желаний / Wishmaster [ужасы, фэнтези, 1997] BDRemux 1080p, Mvo

salma3

35 | 24

17.68 ГБ

В этой теме нет новых непрочитанных сообщений. Исполнитель желаний / Wishmaster [ужасы, фэнтези, 1997] BDRip 720p, Mvo+Avo+Sub

salma3

11 | 1

5.1 ГБ

В этой теме нет новых непрочитанных сообщений. Исполнитель желаний 4: Пророчество сбылось / Wishmaster 4: The Prophecy Fulfilled [фэнтези, ужасы, 2002] WEB-DL 720p, Mvo

salma3

54 | 9

3.33 ГБ

В этой теме нет новых непрочитанных сообщений. Исполнитель желаний 3: Камень Дьявола / Wishmaster 3: Beyond the Gates of Hell [фэнтези, ужасы, 2001] WEB-DL 720p, Mvo

salma3

52 | 9

3.13 ГБ

В этой теме нет новых непрочитанных сообщений. Бойся своих желаний / Шкатулка / Wish Upon [ужасы, фэнтези, триллер, 2017] BDRip 720p, Mvo [UNRATED]

salma3

447 | 37

2.94 ГБ

В этой теме нет новых непрочитанных сообщений. Класс 1999 / Class of 1999 [ужасы, фантастика, боевик, 1990] BDRip 1080p, Dvo

salma3

40 | 17

10.77 ГБ


Начать новую тему Ответить на тему  [ 1 сообщение ] 




Для Мосгорсуда, Роскомнадзора и рекламодателей:: mosgorsud-torrent[собачка]yandex.ru