Торрент файл
скачать торрент магнет ссылка Добавлен: 06 апр 2017, 11:28
Размер: 9.01 ГБ
Сидеров: 106
Личеров: 20
Статус: (salma3)
Автор

СообщениеДобавлено: 06 апр 2017, 11:28 

Не в сети
Супермодератор
Аватара пользователя
Дата регистрации:
15 фев 2012, 16:44
Возраст: 28
Спасибо: 7058 / 2147
Сообщения: 58832
Год выхода: 2009
Жанр: боевик, триллер, приключения
Режиссер: Стивен Херек

В ролях: Крис Кармак, Лора Вандервурт, Марша Томасон, Майкл Грациадей, Мирсеа Монро, Одрина Пэтридж, Аманда Киммел, Рэнд Холдрен, Дэвид Андерс, ...

О фильме: Себастиен и Дэни за хорошее вознаграждение нанимаются в качестве аквалангистов-проводников, для погружения у красивых и полных опасностей рифов Гавайских островов. В процессе пара становится заложниками новых клиентов, и им потребуется всё их умение и любовь, чтобы выжить…



Страна: США
Продолжительность: 01:31:43
Перевод: Профессиональный (многоголосый, закадровый) R5 «Двадцатый Век Фокс СНГ»

Кодек: x264
Качество: WEBRip 1080p
Видео: 1920x1080, 12900 kbps, 23,976 fps
Аудио #1: AC-3, 6 ch, 448 kbps (Rus) - MVO R5 «Двадцатый Век Фокс СНГ»
Аудио #2: AC-3, 6 ch, 448 kbps (Eng)
Субтитры: русские, английские

Общее
Уникальный идентификатор : 192786723729484776336038319393775942986 (0x91095F5655568886A5240ADB7245FD4A)
Полное имя : Добро пожаловать в рай! 2 Риф (Into the Blue 2 The Reef) 2009 WEBRip 1080p.mkv
Формат : Matroska
Версия формата : Version 2
Размер файла : 9,01 Гбайт
Продолжительность : 1 ч. 31 м.
Режим общего битрейта : Переменный
Общий поток : 14,1 Мбит/сек
Дата кодирования : UTC 2017-04-04 13:54:06
Программа кодирования : mkvmerge v4.0.0 ('The Stars were mine') сборка от Jun 6 2010 16:18:42
Библиотека кодирования : libebml v1.0.0 + libmatroska v1.0.0
Видео
Идентификатор : 1
Формат : AVC
Формат/Информация : Advanced Video Codec
Профиль формата : High@L4
Параметр CABAC формата : Да
Параметр ReFrames формата : 4 кадра
Идентификатор кодека : V_MPEG4/ISO/AVC
Продолжительность : 1 ч. 31 м.
Вид битрейта : Переменный
Битрейт : 12,9 Мбит/сек
Максимальный битрейт : 15,0 Мбит/сек
Ширина : 1920 пикселей
Высота : 1080 пикселей
Соотношение сторон : 16:9
Режим частоты кадров : Постоянный
Частота кадров : 23,976 (24000/1001) кадра/сек
Цветовое пространство : YUV
Субдискретизация насыщенности : 4:2:0
Битовая глубина : 8 бит
Тип развёртки : Прогрессивная
Бит/(Пиксели*Кадры) : 0.259
Размер потока : 8,25 Гбайт (92%)
Библиотека кодирования : x264 core 148 r2623 d5b2374
Настройки программы : cabac=1 / ref=4 / deblock=1:-1:-1 / analyse=0x3:0x133 / me=umh / subme=9 / psy=1 / psy_rd=1.00:0.15 / mixed_ref=1 / me_range=24 / chroma_me=1 / trellis=2 / 8x8dct=1 / cqm=0 / deadzone=21,11 / fast_pskip=1 / chroma_qp_offset=-3 / threads=34 / lookahead_threads=5 / sliced_threads=0 / nr=150 / decimate=1 / interlaced=0 / bluray_compat=0 / constrained_intra=0 / bframes=8 / b_pyramid=2 / b_adapt=2 / b_bias=0 / direct=3 / weightb=1 / open_gop=0 / weightp=2 / keyint=120 / keyint_min=61 / scenecut=0 / intra_refresh=0 / rc_lookahead=120 / rc=crf / mbtree=1 / crf=18.0 / qcomp=0.60 / qpmin=0 / qpmax=69 / qpstep=4 / vbv_maxrate=15000 / vbv_bufsize=31250 / crf_max=0.0 / nal_hrd=vbr / filler=0 / ip_ratio=1.40 / aq=3:1.00
Язык : English
Default : Нет
Forced : Нет
Цветовой диапазон : Limited
Основные цвета : BT.709
Характеристики трансфера : BT.709
Коэффициенты матрицы : BT.709
Аудио #1
Идентификатор : 2
Формат : AC-3
Формат/Информация : Audio Coding 3
Расширение режима : CM (complete main)
Параметр Endianness формата : Big
Идентификатор кодека : A_AC3
Продолжительность : 1 ч. 31 м.
Вид битрейта : Постоянный
Битрейт : 448 Кбит/сек
Каналы : 6 каналов
Расположение каналов : Front: L C R, Side: L R, LFE
Частота : 48,0 КГц
Частота кадров : 31,250 кадров/сек (1536 spf)
Метод сжатия : С потерями
Размер потока : 294 Мбайт (3%)
Заголовок : MVO R5 «Двадцатый Век Фокс СНГ»
Язык : Russian
Default : Нет
Forced : Нет
Аудио #2
Идентификатор : 3
Формат : AC-3
Формат/Информация : Audio Coding 3
Расширение режима : CM (complete main)
Параметр Endianness формата : Big
Идентификатор кодека : A_AC3
Продолжительность : 1 ч. 31 м.
Вид битрейта : Постоянный
Битрейт : 448 Кбит/сек
Каналы : 6 каналов
Расположение каналов : Front: L C R, Side: L R, LFE
Частота : 48,0 КГц
Частота кадров : 31,250 кадров/сек (1536 spf)
Метод сжатия : С потерями
Размер потока : 294 Мбайт (3%)
Язык : English
Default : Нет
Forced : Нет
Текст #1
Идентификатор : 4
Формат : UTF-8
Идентификатор кодека : S_TEXT/UTF8
Идентификатор кодека/Информация : UTF-8 Plain Text
Язык : Russian
Default : Нет
Forced : Нет
Текст #2
Идентификатор : 5
Формат : UTF-8
Идентификатор кодека : S_TEXT/UTF8
Идентификатор кодека/Информация : UTF-8 Plain Text
Заголовок : SDH
Язык : English
Default : Нет
Forced : Нет



_________________
Проголосуй за трекер Открытый торрент трекер - RUS-MEDIA.ORG

Проголосуй Открытый торрент трекер - RUS-MEDIA.ORG


Вернуться к началу
 Профиль Отправить личное сообщение  
 
   Похожие торренты   Автор   Торрент   Размер 
В этой теме нет новых непрочитанных сообщений. Добро пожаловать в рай! 2: Риф / Into the Blue 2: The Reef [боевик, триллер, приключения, 2009] WEBRip-AVC, Mvo

salma3

149 | 36

744.08 МБ

В этой теме нет новых непрочитанных сообщений. Добро пожаловать в рай! 2: Риф / Into the Blue 2: The Reef [боевик, триллер, приключения, 2009] DVDRip-AVC, Mvo+Sub

salma3

110 | 26

2.89 ГБ

В этой теме нет новых непрочитанных сообщений. Добро пожаловать в рай! / Into the Blue [Боевик, триллер, криминал, приключения, 2005] HDRip-AVC, Dub

salma3

171 | 42

746.02 МБ

В этой теме нет новых непрочитанных сообщений. Добро пожаловать в рай / Vice (Брайан А Миллер) [Фантастика, боевик, триллер, приключения, 2015] BDRip, dub

Dracon

9 | 0

1.46 ГБ

В этой теме нет новых непрочитанных сообщений. Добро пожаловать в рай / Vice (Брайан А Миллер) [Фантастика, боевик, триллер, приключения, 2015] HDRip, Dub [iTunes]

Dracon

156 | 6

1.42 ГБ

В этой теме нет новых непрочитанных сообщений. Добро пожаловать в рай / Vice (Брайан А Миллер) [Фантастика, боевик, триллер, приключения, 2015] BDRip 720p, Dub+Sub [iTunes]

Dracon

11 | 1

6.08 ГБ

В этой теме нет новых непрочитанных сообщений. Добро пожаловать в рай / Vice (Брайан А Миллер) [Фантастика, боевик, триллер, приключения, 2015] BDRip 720p, dub [Чистый звук]

Dracon

1530 | 87

6.68 ГБ


Начать новую тему Ответить на тему  [ 1 сообщение ] 




Для Мосгорсуда, Роскомнадзора и рекламодателей:: mosgorsud-torrent[собачка]yandex.ru
cron