Торрент файл
скачать торрент магнет ссылка Добавлен: 05 апр 2017, 16:08
Размер: 8.71 ГБ
Сидеров: 38
Личеров: 12
Статус: (salma3)
Автор

СообщениеДобавлено: 05 апр 2017, 16:08 

В сети
Супермодератор
Аватара пользователя
Дата регистрации:
15 фев 2012, 16:44
Возраст: 28
Спасибо: 7224 / 2147
Сообщения: 68128
Год выпуска: 1997
Жанр: Ужасы, фэнтези
Режиссёр: Роберт Куртцман

В ролях: Тэмми Лорен, Эндрю Дивофф, Крис Леммон, Роберт Энглунд, Уэнди Бенсон-Лэндес, Тони Крейн, Кейн Ходдер, Тони Тодд

Описание: Пьяный крановщик разбивает древнюю статую, в которой 800 лет хранится таинственный опал, заключающий в себе злого духа, Джинна, имеющего неограниченную власть. Почти неограниченную. Джинн исполняет людские желания, забирая в обмен душу. Чтобы обрести вечную жизнь, ему нужно лишь исполнить три желания человека, пробудившего его ото сна.



Страна: США
Продолжительность: 01:30:07
Перевод: Профессиональный (многоголосый закадровый) компания «DVD Group»
Перевод: Авторский (одноголосый закадровый) Пётр Карцев
Cубтитры: Русские, английские

Качество: BDRip 1080p
Видео: MPEG4 Video (H264), 1920x1080, 23.976fps, 12.5 Mbps
Аудио #1: Русский - Dolby AC3, 48000 Hz, 6ch, 448 kbps - многоголосый, DVD Group
Аудио #2: Русский - Dolby AC3, 48000 Hz, 6ch, 448 kbps - одноголосый, П. Карцев
Аудио #3: Английский - Dolby AC3, 48000 Hz, 6ch, 448 kbps
Формат субтитров: Softsub (SRT)

Сэмпл

General
Unique ID : 208691289348249512522853483105005239759 (0x9D007AF6D4FE2BE1A05678CA7A8A7DCF)
Complete name : D:Torrent 21997.Wishmaster .likko.mkv
Format : Matroska
Format version : Version 4 / Version 2
File size : 8.71 GiB
Duration : 1 h 30 min
Overall bit rate : 13.8 Mb/s
Movie name : 1997 Исполнитель желаний/likko
Encoded date : UTC 2017-04-05 10:13:34
Writing application : mkvmerge v8.3.0 ('Over the Horizon') 64bit
Writing library : libebml v1.3.1 + libmatroska v1.4.2

Video
ID : 1
Format : AVC
Format/Info : Advanced Video Codec
Format profile : High@L4.1
Format settings, CABAC : Yes
Format settings, ReFrames : 4 frames
Codec ID : V_MPEG4/ISO/AVC
Duration : 1 h 30 min
Bit rate : 12.5 Mb/s
Width : 1 920 pixels
Height : 1 080 pixels
Display aspect ratio : 16:9
Frame rate mode : Constant
Frame rate : 23.976 (24000/1001) FPS
Color space : YUV
Chroma subsampling : 4:2:0
Bit depth : 8 bits
Scan type : Progressive
Bits/(Pixel*Frame) : 0.251
Stream size : 7.86 GiB (90%)
Title : 1997 Исполнитель желаний
Writing library : x264 core 146 r2538 121396c
Encoding settings : cabac=1 / ref=4 / deblock=1:-1:-1 / analyse=0x3:0x133 / me=umh / subme=11 / psy=1 / psy_rd=1.07:0.15 / mixed_ref=1 / me_range=32 / chroma_me=1 / trellis=2 / 8x8dct=1 / cqm=0 / deadzone=21,11 / fast_pskip=0 / chroma_qp_offset=-3 / threads=12 / lookahead_threads=3 / sliced_threads=0 / nr=0 / decimate=1 / interlaced=0 / bluray_compat=0 / constrained_intra=0 / bframes=10 / b_pyramid=2 / b_adapt=2 / b_bias=0 / direct=3 / weightb=1 / open_gop=0 / weightp=2 / keyint=250 / keyint_min=23 / scenecut=40 / intra_refresh=0 / rc=2pass / mbtree=0 / bitrate=12500 / ratetol=1.0 / qcomp=0.60 / qpmin=0 / qpmax=69 / qpstep=4 / cplxblur=20.0 / qblur=0.5 / ip_ratio=1.40 / pb_ratio=1.30 / aq=1:1.00
Language : English
Default : Yes
Forced : No

Audio #1
ID : 2
Format : AC-3
Format/Info : Audio Coding 3
Format settings, Endianness : Big
Codec ID : A_AC3
Duration : 1 h 30 min
Bit rate mode : Constant
Bit rate : 448 kb/s
Channel(s) : 6 channels
Channel positions : Front: L C R, Side: L R, LFE
Sampling rate : 48.0 kHz
Frame rate : 31.250 FPS (1536 spf)
Bit depth : 16 bits
Compression mode : Lossy
Stream size : 289 MiB (3%)
Title : Многоголосый, DVD Group
Language : Russian
Service kind : Complete Main
Default : Yes
Forced : No

Audio #2
ID : 3
Format : AC-3
Format/Info : Audio Coding 3
Format settings, Endianness : Big
Codec ID : A_AC3
Duration : 1 h 30 min
Bit rate mode : Constant
Bit rate : 448 kb/s
Channel(s) : 6 channels
Channel positions : Front: L C R, Side: L R, LFE
Sampling rate : 48.0 kHz
Frame rate : 31.250 FPS (1536 spf)
Bit depth : 16 bits
Compression mode : Lossy
Stream size : 289 MiB (3%)
Title : Одноголосый, П. Карцев
Language : Russian
Service kind : Complete Main
Default : No
Forced : No

Audio #3
ID : 4
Format : AC-3
Format/Info : Audio Coding 3
Format settings, Endianness : Big
Codec ID : A_AC3
Duration : 1 h 30 min
Bit rate mode : Constant
Bit rate : 448 kb/s
Channel(s) : 6 channels
Channel positions : Front: L C R, Side: L R, LFE
Sampling rate : 48.0 kHz
Frame rate : 31.250 FPS (1536 spf)
Bit depth : 16 bits
Compression mode : Lossy
Stream size : 289 MiB (3%)
Language : English
Service kind : Complete Main
Default : No
Forced : No

Text #1
ID : 5
Format : UTF-8
Codec ID : S_TEXT/UTF8
Codec ID/Info : UTF-8 Plain Text
Duration : 1 h 24 min
Bit rate : 78 b/s
Count of elements : 785
Stream size : 49.1 KiB (0%)
Language : Russian
Default : No
Forced : No

Text #2
ID : 6
Format : UTF-8
Codec ID : S_TEXT/UTF8
Codec ID/Info : UTF-8 Plain Text
Duration : 1 h 29 min
Bit rate : 55 b/s
Count of elements : 1445
Stream size : 36.7 KiB (0%)
Language : English
Default : No
Forced : No

Menu
00:00:00.000 : en:Chapter 01
00:07:36.330 : en:Chapter 02
00:16:14.098 : en:Chapter 03
00:26:44.644 : en:Chapter 04
00:32:21.898 : en:Chapter 05
00:39:23.778 : en:Chapter 06
00:50:32.279 : en:Chapter 07
00:55:59.064 : en:Chapter 08
01:01:14.379 : en:Chapter 09
01:07:20.244 : en:Chapter 10
01:14:12.823 : en:Chapter 11
01:25:24.494 : en:Chapter 12



_________________
Проголосуй за трекер Открытый торрент трекер - RUS-MEDIA.ORG

Проголосуй Открытый торрент трекер - RUS-MEDIA.ORG


Вернуться к началу
 Профиль Отправить личное сообщение  
 
   Похожие торренты   Автор   Торрент   Размер 
В этой теме нет новых непрочитанных сообщений. Исполнитель желаний / Wishmaster [ужасы, фэнтези, 1997] BDRip, Avo

salma3

0 | 0

1.47 ГБ

В этой теме нет новых непрочитанных сообщений. Исполнитель желаний / Wishmaster [ужасы, фэнтези, 1997] BDRemux 1080p, Mvo

salma3

35 | 24

17.68 ГБ

В этой теме нет новых непрочитанных сообщений. Исполнитель желаний / Wishmaster [ужасы, фэнтези, 1997] BDRip 720p, Mvo+Avo+Sub

salma3

11 | 1

5.1 ГБ

В этой теме нет новых непрочитанных сообщений. Исполнитель желаний 2: Зло никогда не умирает / Wishmaster 2: Evil Never Dies [Ужасы, фэнтези, 1999] BDRip 1080p, Mvo

salma3

101 | 32

8.88 ГБ

В этой теме нет новых непрочитанных сообщений. Исполнитель желаний 3: Камень Дьявола / Wishmaster 3: Beyond the Gates of Hell [фэнтези, ужасы, 2001] WEB-DL 720p, Mvo

salma3

52 | 9

3.13 ГБ

В этой теме нет новых непрочитанных сообщений. Исполнитель желаний 4: Пророчество сбылось / Wishmaster 4: The Prophecy Fulfilled [фэнтези, ужасы, 2002] WEB-DL 720p, Mvo

salma3

54 | 9

3.33 ГБ

В этой теме нет новых непрочитанных сообщений. Бойся своих желаний / Шкатулка / Wish Upon [ужасы, фэнтези, триллер, 2017] BDRip 720p, Mvo [UNRATED]

salma3

496 | 39

2.94 ГБ


Начать новую тему Ответить на тему  [ 1 сообщение ] 




Для Мосгорсуда, Роскомнадзора и рекламодателей:: mosgorsud-torrent[собачка]yandex.ru
cron