Торрент файл
скачать торрент магнет ссылка Добавлен: 03 апр 2017, 10:06
Размер: 10.54 ГБ
Сидеров: 65
Личеров: 20
Статус: (salma3)
Автор

СообщениеДобавлено: 03 апр 2017, 10:06 

Не в сети
Супермодератор
Аватара пользователя
Дата регистрации:
15 фев 2012, 16:44
Возраст: 28
Спасибо: 7224 / 2147
Сообщения: 67851
Год выхода: 1964
Жанр: Комедия, Мелодрама
Режиссер: Ричард Куайн / Richard Quine

В ролях: Натали Вуд, Тони Кертис, Генри Фонда, Лорен Бэколл, Мэл Феррер, Фрэн Джеффрис, Лесли Пэрриш, Эдвард Эверетт Хортон, Ларри Сторч, Стабби Кэй, Отто Крюгер

О фильме:
Редактор «желтого журнала» «Стоп» Боб Вестон процветает! Чем скандальнее его статьи — тем в больший экстаз впадают главный редактор и редколлегия! Последним его «шедевром» стало исследование книги молодого психолога, очаровательной Хелен Браун. Ей 23 года, она не замужем и при этом пустилась в книге в исследования любви, секса и семейной жизни...



Страна: США
Продолжительность: 01:54:10
Перевод #1: Профессиональный (двухголосый, закадровый) НТВ+
Перевод #2: Профессиональный (одноголосый, закадровый)
Cубтитры : Английский; Русский

Контейнер: MKV
Качество: WEBRip 1080p
Видео: MPEG-4 AVC, High@L4, 12.6 Mb/s, 1 920 x 1 080, 23.976 fps
Аудио 1 : Русский (AC-3, 2ch, 192 kb/s, 48.0 KHz) MVO НТВ+
Аудио 2 : Русский (AC-3, 2ch, 192 kb/s, 48.0 KHz) VO
Аудио 3 : Английский (E-AC-3, 2ch, 224 kb/s, 48.0 KHz)
Субтитры : Russian SRT; English SRT; English SRT SDH
Навигация по главам: есть
Глобальные тэги: есть
Общее
Уникальный идентификатор : 234103039313059340531827713981927354245 (0xB01E9AF81EADF1C487C3AC7C90536F85)
Полное имя : E:Секс и незамужняя девушка Sex and the single girll (1964) (R5).mkv
Формат : Matroska
Версия формата : Version 4 / Version 2
Размер файла : 10,5 Гбайт
Продолжительность : 1 ч. 54 м.
Режим общего битрейта : Переменный
Общий поток : 13,2 Мбит/сек
Название фильма : Секс и незаму
Тип содержимого : Movie
Дата выпуска : 1964-12-25
Дата кодирования : UTC 2017-04-02 08:30:14
Программа кодирования : mkvmerge v10.0.0 ('To Drown In You') 64bit
Библиотека кодирования : libebml v1.3.4 + libmatroska v1.4.5
Обложка : Yes
Attachments : cover.jpg
ACTOR : Tony Curtis, Natalie Wood, Henry Fonda, Lauren Bacall, Mel Ferrer, Fran Jeffries, Leslie Parrish, Edward Everett Horton, Larry Storch, Stubby Kaye, Howard St. John, Otto Kruger, Max Showalter
ARTIST : Tony Curtis, Natalie Wood, Henry Fonda, Lauren Bacall, Mel Ferrer, Fran Jeffries, Leslie Parrish, Edward Everett Horton, Larry Storch, Stubby Kaye, Howard St. John, Otto Kruger, Max Showalter
DIRECTOR : Richard Quine - Ричард Куайн
GENRE : комедия, мелодрама
PRODUCER : William T. Orr - Уильям Т. Орр
PRODUCTION_STUDIO : Reynard
SCREENPLAY_BY : Джозеф Хеллер, Дэвид Р. Шварц, Лесли Х. Мартинсон
SYNOPSIS : Редактор «желтого журнала» «Стоп» Боб Вестон процветает! Чем скандальнее его статьи — тем в больший экстаз впадают главный редактор и редколлегия! Последним его «шедевром» стало исследование книги молодого психолога, очаровательной Хелен Браун. Ей 23 года, она не замужем и при этом пустилась в книге в исследования любви, секса и семейной жизни. Все женщины без ума от ее творения, а Боб — Боб просто назвал ее девственницей и от души посмеялся, чем поверг Хелен в безудержную ярость. Она готова уехать на край света и бросить свое занятие. Но Боб собирается написать еще более хлесткую статью о ней. Для этого ему необходимо познакомиться с ней лично и взять интервью. Он отлично понимает, что Хелен ни за что на свете не станет с ним встречаться…
Видео
Идентификатор : 1
Формат : AVC
Формат/Информация : Advanced Video Codec
Профиль формата : High@L4
Параметр CABAC формата : Да
Параметр ReFrames формата : 4 кадра
Идентификатор кодека : V_MPEG4/ISO/AVC
Продолжительность : 1 ч. 54 м.
Вид битрейта : Переменный
Битрейт : 12,6 Мбит/сек
Максимальный битрейт : 15,0 Мбит/сек
Ширина : 1920 пикселей
Высота : 1080 пикселей
Соотношение сторон : 16:9
Режим частоты кадров : Переменный
Частота кадров : 23,976 (24000/1001) кадра/сек
Цветовое пространство : YUV
Субдискретизация насыщенности : 4:2:0
Битовая глубина : 8 бит
Тип развёртки : Прогрессивная
Бит/(Пиксели*Кадры) : 0.254
Размер потока : 10,1 Гбайт (95%)
Библиотека кодирования : x264 core 148 r2623 d5b2374
Настройки программы : cabac=1 / ref=4 / deblock=1:-1:-1 / analyse=0x3:0x133 / me=umh / subme=9 / psy=1 / psy_rd=1.00:0.15 / mixed_ref=1 / me_range=24 / chroma_me=1 / trellis=2 / 8x8dct=1 / cqm=0 / deadzone=21,11 / fast_pskip=1 / chroma_qp_offset=-3 / threads=34 / lookahead_threads=5 / sliced_threads=0 / nr=150 / decimate=1 / interlaced=0 / bluray_compat=0 / constrained_intra=0 / bframes=8 / b_pyramid=2 / b_adapt=2 / b_bias=0 / direct=3 / weightb=1 / open_gop=0 / weightp=2 / keyint=120 / keyint_min=61 / scenecut=0 / intra_refresh=0 / rc_lookahead=120 / rc=crf / mbtree=1 / crf=18.0 / qcomp=0.60 / qpmin=0 / qpmax=69 / qpstep=4 / vbv_maxrate=15000 / vbv_bufsize=31250 / crf_max=0.0 / nal_hrd=vbr / filler=0 / ip_ratio=1.40 / aq=3:1.00
Язык : English
Default : Да
Forced : Нет
Цветовой диапазон : Limited
Основные цвета : BT.709
Характеристики трансфера : BT.709
Коэффициенты матрицы : BT.709
Аудио #1
Идентификатор : 2
Формат : AC-3
Формат/Информация : Audio Coding 3
Расширение режима : CM (complete main)
Параметр Endianness формата : Big
Идентификатор кодека : A_AC3
Продолжительность : 1 ч. 54 м.
Вид битрейта : Постоянный
Битрейт : 192 Кбит/сек
Каналы : 2 канала
Расположение каналов : Front: L R
Частота : 48,0 КГц
Частота кадров : 31,250 кадров/сек (1536 spf)
Битовая глубина : 16 бит
Метод сжатия : С потерями
Размер потока : 157 Мбайт (1%)
Заголовок : MVO
Язык : Russian
Default : Да
Forced : Нет
Аудио #2
Идентификатор : 3
Формат : AC-3
Формат/Информация : Audio Coding 3
Расширение режима : CM (complete main)
Параметр Endianness формата : Big
Идентификатор кодека : A_AC3
Продолжительность : 1 ч. 54 м.
Вид битрейта : Постоянный
Битрейт : 192 Кбит/сек
Каналы : 2 канала
Расположение каналов : Front: L R
Частота : 48,0 КГц
Частота кадров : 31,250 кадров/сек (1536 spf)
Битовая глубина : 16 бит
Метод сжатия : С потерями
Размер потока : 157 Мбайт (1%)
Заголовок : VO
Язык : Russian
Default : Нет
Forced : Нет
Аудио #3
Идентификатор : 4
Формат : E-AC-3
Формат/Информация : Enhanced Audio Coding 3
Параметр Endianness формата : Big
Идентификатор кодека : A_EAC3
Продолжительность : 1 ч. 54 м.
Вид битрейта : Постоянный
Битрейт : 224 Кбит/сек
Каналы : 2 канала
Расположение каналов : Front: L R
Частота : 48,0 КГц
Частота кадров : 187,500 кадров/сек (256 spf)
Метод сжатия : С потерями
Размер потока : 183 Мбайт (2%)
Язык : English
Default : Нет
Forced : Нет
Текст #1
Идентификатор : 5
Формат : UTF-8
Идентификатор кодека : S_TEXT/UTF8
Идентификатор кодека/Информация : UTF-8 Plain Text
Продолжительность : 1 ч. 51 м.
Битрейт : 144 бит/сек
Count of elements : 1774
Размер потока : 118 Кбайт (0%)
Заголовок : SRT
Язык : Russian
Default : Да
Forced : Нет
Текст #2
Идентификатор : 6
Формат : UTF-8
Идентификатор кодека : S_TEXT/UTF8
Идентификатор кодека/Информация : UTF-8 Plain Text
Продолжительность : 1 ч. 50 м.
Битрейт : 82 бит/сек
Count of elements : 1916
Размер потока : 67,3 Кбайт (0%)
Заголовок : SRT
Язык : English
Default : Нет
Forced : Нет
Текст #3
Идентификатор : 7
Формат : UTF-8
Идентификатор кодека : S_TEXT/UTF8
Идентификатор кодека/Информация : UTF-8 Plain Text
Продолжительность : 1 ч. 53 м.
Битрейт : 84 бит/сек
Count of elements : 2070
Размер потока : 70,4 Кбайт (0%)
Заголовок : SRT SDH
Язык : English
Default : Нет
Forced : Нет
Меню
00:00:00.000 : en:Chapter 01
00:10:45.881 : en:Chapter 02
00:20:41.668 : en:Chapter 03
00:33:32.179 : en:Chapter 04
00:42:22.773 : en:Chapter 05
00:50:38.790 : en:Chapter 06
01:04:36.037 : en:Chapter 07
01:09:21.626 : en:Chapter 08
01:19:56.162 : en:Chapter 09
01:31:16.787 : en:Chapter 10
01:42:10.051 : en:Chapter 11


_________________
Проголосуй за трекер Открытый торрент трекер - RUS-MEDIA.ORG

Проголосуй Открытый торрент трекер - RUS-MEDIA.ORG


Вернуться к началу
 Профиль Отправить личное сообщение  
 
   Похожие торренты   Автор   Торрент   Размер 
В этой теме нет новых непрочитанных сообщений. Девушка моего лучшего друга / My Best Friend's Girl [Комедия, мелодрама, 2008] Blu-Ray 1080p, Dub [Unrated version]

salma3

25 | 30

41.96 ГБ

В этой теме нет новых непрочитанных сообщений. Девушка моего лучшего друга / My Best Friend's Girl [мелодрама, комедия, 2008] BDRip 1080p, Dub [Unrated]

salma3

0 | 0

11.31 ГБ

В этой теме нет новых непрочитанных сообщений. Девушка на мотоцикле / The Girl on a Motorcycle [мелодрама, 1968] BDRemux 1080p, Dvo

salma3

11 | 37

15.87 ГБ

В этой теме нет новых непрочитанных сообщений. Солдатская девушка / Soldier's Girl [Драма, мелодрама, криминал, 2003] WEB-DL 1080p, Dvo

salma3

38 | 1

4.91 ГБ

В этой теме нет новых непрочитанных сообщений. Милая одинокая девушка / Sweet, Sweet Lonely Girl [ужасы, триллер, драма, 2016] WEBRip 1080p, Mvo [GreenРай Studio]

salma3

0 | 0

2.56 ГБ

В этой теме нет новых непрочитанных сообщений. Девушка-птица / Tori Girl / Tori garu! [драма, комедия, 2017] WEBRip 720p, Dvo

salma3

0 | 0

1.13 ГБ

В этой теме нет новых непрочитанных сообщений. Девушка-король / The Girl King Драма, мелодрама, биография, история[, 2015] BDRip 1080p, Avo

salma3

27 | 5

10.77 ГБ


Начать новую тему Ответить на тему  [ 1 сообщение ] 




Для Мосгорсуда, Роскомнадзора и рекламодателей:: mosgorsud-torrent[собачка]yandex.ru
cron