Торрент файл
скачать торрент магнет ссылка Добавлен: 03 апр 2017, 09:55
Размер: 4.85 ГБ
Сидеров: 9
Личеров: 2
Статус: (salma3)
Автор

СообщениеДобавлено: 03 апр 2017, 09:55 

Не в сети
Супермодератор
Аватара пользователя
Дата регистрации:
15 фев 2012, 16:44
Возраст: 28
Спасибо: 7165 / 2147
Сообщения: 62107
Год выхода: 2003
Жанр: драма
Режиссер: Гас Ван Сент

В ролях: Алекс Фрост, Эрик Дойлен, Джон Робинсон, Елиас МакКоннелл, Джордан Тейлор, Кэрри Финкли, Николь Джордж, Бриттани Маунтин, Алисия Майлз, Кристен Хикс

О фильме:
Чудесный осенний день. По пути на занятия Илай фотографирует парочку панков. Нейт заканчивает футбольную тренировку и собирается позавтракать со своей подругой Кэрри. В школьном офисе Джон оставляет ключи от отцовской машины своему брату. Бриттани, Джордан и Николь сплетничают в кафетерии… Обычный школьный день, которому было суждено превратиться в вакханалию смерти.



Страна: США
Продолжительность: 01:21:25
Перевод: дублированный; профессиональный многоголосный, закадровый

Файл
Кодек: H.264
Качество: BDRip 720p
Видео: MPEG-4 / AVC, 960х720 (4:3), 23,976 fps ~ 6182 Kbps
Звук:
AC3, 48 KHz 6 ch ~ 448 Kb/s (дублированный)
AC3, 48 KHz 6 ch ~ 384 Kb/s (многоголосный)
DTS, 48 KHz 6 ch ~ 1510 Kb/s (английский)
Субтитры: русские, английские
Общее
Уникальный идентификатор : 219381704356408241625280436745165208302 (0xA50B611E334CFD42B2EBB7CB594DFAEE)
Полное имя : Q:TorFElephant.2003.720p.BluRay.DTS.x264-ESiR.mkv
Формат : Matroska
Версия формата : Version 4 / Version 2
Размер файла : 4,85 Гбайт
Продолжительность : 1 ч. 21 м.
Общий поток : 8525 Кбит/сек
Название фильма : Elephant (2003)
Дата кодирования : UTC 2017-02-26 11:50:16
Программа кодирования : mkvmerge v9.6.0 ('Slave To Your Mind') 64bit
Библиотека кодирования : libebml v1.3.4 + libmatroska v1.4.5
DURATION : 01:17:43.160000000
NUMBER_OF_FRAMES : 531
NUMBER_OF_BYTES : 37299
_STATISTICS_WRITING_APP : mkvmerge v9.6.0 ('Slave To Your Mind') 64bit
_STATISTICS_WRITING_DATE_UTC : 2017-02-26 11:50:16
_STATISTICS_TAGS : BPS DURATION NUMBER_OF_FRAMES NUMBER_OF_BYTES
Attachment : Yes / Yes / Yes
Видео
Идентификатор : 1
Формат : AVC
Формат/Информация : Advanced Video Codec
Профиль формата : High@L4.1
Параметр CABAC формата : Да
Параметр ReFrames формата : 6 кадров
Идентификатор кодека : V_MPEG4/ISO/AVC
Продолжительность : 1 ч. 21 м.
Битрейт : 6182 Кбит/сек
Ширина : 960 пикселей
Высота : 720 пикселей
Соотношение сторон : 4:3
Частота кадров : 23,976 кадра/сек
Цветовое пространство : YUV
Субдискретизация насыщенности : 4:2:0
Битовая глубина : 8 бит
Тип развёртки : Прогрессивная
Бит/(Пиксели*Кадры) : 0.373
Размер потока : 3,42 Гбайт (71%)
Библиотека кодирования : x264 core 68 r1183M f21daff
Настройки программы : cabac=1 / ref=6 / deblock=1:-3:-3 / analyse=0x3:0x133 / me=umh / subme=9 / psy_rd=0.9:0.0 / mixed_ref=1 / me_range=24 / chroma_me=1 / trellis=2 / 8x8dct=1 / cqm=0 / deadzone=21,11 / chroma_qp_offset=-2 / threads=3 / nr=0 / decimate=1 / mbaff=0 / bframes=3 / b_pyramid=1 / b_adapt=2 / b_bias=0 / direct=1 / wpredb=1 / keyint=250 / keyint_min=25 / scenecut=40 / rc=2pass / bitrate=6182 / ratetol=1.0 / qcomp=0.60 / qpmin=10 / qpmax=40 / qpstep=4 / cplxblur=20.0 / qblur=0.5 / vbv_maxrate=50000 / vbv_bufsize=50000 / ip_ratio=1.40 / pb_ratio=1.30 / aq=1:0.90
Язык : English
Default : Да
Forced : Нет
DURATION : 01:21:25.585000000
NUMBER_OF_FRAMES : 117137
NUMBER_OF_BYTES : 3774650511
_STATISTICS_WRITING_APP : mkvmerge v9.6.0 ('Slave To Your Mind') 64bit
_STATISTICS_WRITING_DATE_UTC : 2017-02-26 11:50:16
_STATISTICS_TAGS : BPS DURATION NUMBER_OF_FRAMES NUMBER_OF_BYTES
Аудио #1
Идентификатор : 2
Формат : AC-3
Формат/Информация : Audio Coding 3
Расширение режима : CM (complete main)
Идентификатор кодека : A_AC3
Продолжительность : 1 ч. 21 м.
Вид битрейта : Постоянный
Битрейт : 448 Кбит/сек
Каналы : 6 каналов
Расположение каналов : Front: L C R, Side: L R, LFE
Частота : 48,0 КГц
Битовая глубина : 16 бит
Метод сжатия : С потерями
Размер потока : 261 Мбайт (5%)
Заголовок : R5
Язык : Russian
Default : Да
Forced : Нет
Аудио #2
Идентификатор : 3
Формат : AC-3
Формат/Информация : Audio Coding 3
Расширение режима : CM (complete main)
Идентификатор кодека : A_AC3
Продолжительность : 1 ч. 21 м.
Вид битрейта : Постоянный
Битрейт : 384 Кбит/сек
Каналы : 6 каналов
Расположение каналов : Front: L C R, Side: L R, LFE
Частота : 48,0 КГц
Битовая глубина : 16 бит
Метод сжатия : С потерями
Размер потока : 224 Мбайт (5%)
Заголовок : MVO
Язык : Russian
Default : Нет
Forced : Нет
Аудио #3
Идентификатор : 4
Формат : DTS
Формат/Информация : Digital Theater Systems
Идентификатор кодека : A_DTS
Продолжительность : 1 ч. 21 м.
Вид битрейта : Постоянный
Битрейт : 1510 Кбит/сек
Каналы : 6 каналов
Расположение каналов : Front: L C R, Side: L R, LFE
Частота : 48,0 КГц
Битовая глубина : 24 бит
Метод сжатия : С потерями
Размер потока : 879 Мбайт (18%)
Язык : English
Default : Нет
Forced : Нет
Текст #1
Идентификатор : 5
Формат : UTF-8
Идентификатор кодека : S_TEXT/UTF8
Идентификатор кодека/Информация : UTF-8 Plain Text
Язык : Russian
Default : Да
Forced : Нет
Текст #2
Идентификатор : 6
Формат : ASS
Идентификатор кодека : S_TEXT/ASS
Идентификатор кодека/Информация : Advanced Sub Station Alpha
Метод сжатия : Без потерь
Язык : English
Default : Нет
Forced : Нет


_________________
Проголосуй за трекер Открытый торрент трекер - RUS-MEDIA.ORG

Проголосуй Открытый торрент трекер - RUS-MEDIA.ORG


Вернуться к началу
 Профиль Отправить личное сообщение  
 
   Похожие торренты   Автор   Торрент   Размер 
В этой теме нет новых непрочитанных сообщений. Загнанный / The Hunted [Боевик, триллер, драма, 2003] BDRip 720p, Dub+Sub

salma3

38 | 11

5.36 ГБ

В этой теме нет новых непрочитанных сообщений. Властелин легенд / DreamKeeper [фэнтези, драма, 2003] BDRip 720p, Mvo

salma3

9 | 6

8.63 ГБ

В этой теме нет новых непрочитанных сообщений. Реальная любовь / Love Actually [драма, мелодрама, комедия, 2003] BDRip 720p, Dub

salma3

2 | 1

7.76 ГБ

В этой теме нет новых непрочитанных сообщений. Запятнанная репутация / The Human Stain [драма, мелодрама, 2003] BDRip 720p, Dub

salma3

12 | 2

5.12 ГБ

В этой теме нет новых непрочитанных сообщений. Слепой горизонт / Blind Horizon [Триллер, драма, 2003] BDRip 720p, Dvo+Sub

salma3

157 | 34

3.99 ГБ

В этой теме нет новых непрочитанных сообщений. И слоны бывают неверны / Un éléphant ça trompe énormément [комедия, 1976] BDRip, Dvo

salma3

0 | 0

1.45 ГБ

В этой теме нет новых непрочитанных сообщений. Трудности перевода / Lost in Translation [драма, мелодрама, комедия, 2003] BDRip 720p, Dub

salma3

3 | 8

3.47 ГБ


Начать новую тему Ответить на тему  [ 1 сообщение ] 




Для Мосгорсуда, Роскомнадзора и рекламодателей:: mosgorsud-torrent[собачка]yandex.ru
cron