Торрент файл
скачать торрент магнет ссылка Добавлен: 31 мар 2017, 02:01
Размер: 4.37 ГБ
Сидеров: 28
Личеров: 13
Статус: (salma3)
Автор

СообщениеДобавлено: 31 мар 2017, 02:01 

Не в сети
Супермодератор
Аватара пользователя
Дата регистрации:
15 фев 2012, 16:44
Возраст: 29
Спасибо: 7332 / 2147
Сообщения: 73881
Год выпуска: 2008
Жанр: фэнтези, боевик, приключения
Режиссер: Эндрю Адамсон

В ролях: Бен Барнс, Джорджи Хенли, Скандар Кейнс, Уильям Моусли, Анна Попплуэлл, Серджо Кастеллитто, Питер Динклэйдж, Тильда Суинтон, Уорвик Дэвис, Винсент Грасс

Описание:
Люси, Сьюзен, Эдмунд и Питер Пэванси возвращаются в Нарнию. В Англии прошло совсем немного времени, а в Нарнии — века. Страна находится под гнетом зловещего короля Мираза. Но у волшебного королевства есть надежда — юный принц Каспиан. Чтобы помочь Каспиану отвоевать трон, четверо героев собирают армию мифических существ во главе с Асланом — основателем и покровителем Нарнии…



Страна: США, Польша, Словения, Чехия
Продолжительность: 02:29:59
Перевод: Профессиональный (полное дублирование)

Формат: BDRip 720p
Видео: 1280x534p (2.40:1), 23.976 fps, AVC MPEG-4 (x264), , ~3403 Mbps avg., 0.208 bit/pixel
Аудио#1: Русский: 48 kHz/16 bits, AC3 Dolby Digital, 3/2 (L,C,R,l,r) + LFE ch, ~384 kbps avg
Аудио#2: Английский: 48 kHz/16 bits, AC3 Dolby Digital, 3/2 (L,C,R,l,r) + LFE ch, ~384 kbps avg
Cубтитры: Русские, aнглийские


General
Unique ID : 180005749346783636342913071591345810190 (0x876BD8A5FEBB3FE3964C7F4D44C2EB0E)
Complete name : E:The Chronicles of Narnia Prince Caspian(2008)BDRip-F.HD.mkv
Format : Matroska
Format version : Version 2
File size : 4.37 GiB
Duration : 2h 29mn
Overall bit rate : 4 170 Kbps
Encoded date : UTC 2012-09-23 10:35:15
Writing application : mkvmerge v5.8.0 ('No Sleep / Pillow') built on Sep 2 2012 15:37:04
Writing library : libebml v1.2.3 + libmatroska v1.3.0

Video
ID : 1
Format : AVC
Format/Info : Advanced Video Codec
Format profile :
Format settings, CABAC : Yes
Format settings, ReFrames : 8 frames
Codec ID : V_MPEG4/ISO/AVC
Duration : 2h 29mn
Bit rate : 3 403 Kbps
Width : 1 280 pixels
Height : 534 pixels
Display aspect ratio : 2.40:1
Frame rate : 23.976 fps
Color space : YUV
Chroma subsampling : 4:2:0
Bit depth : 8 bits
Scan type : Progressive
Bits/(Pixel*Frame) : 0.208
Stream size : 3.48 GiB (80%)
Writing library : x264 core 125 r2208 d9d2288
Encoding settings : cabac=1 / ref=8 / deblock=1:-1:-1 / analyse=0x3:0x113 / me=umh / subme=10 / psy=1 / psy_rd=1.00:0.10 / mixed_ref=1 / me_range=32 / chroma_me=1 / trellis=2 / 8x8dct=1 / cqm=0 / deadzone=21,11 / fast_pskip=0 / chroma_qp_offset=1 / threads=6 / lookahead_threads=1 / sliced_threads=0 / nr=0 / decimate=1 / interlaced=0 / bluray_compat=0 / constrained_intra=0 / bframes=9 / b_pyramid=2 / b_adapt=2 / b_bias=0 / direct=3 / weightb=1 / open_gop=0 / weightp=2 / keyint=240 / keyint_min=23 / scenecut=40 / intra_refresh=0 / rc=2pass / mbtree=0 / bitrate=3403 / ratetol=1.0 / qcomp=0.70 / qpmin=10 / qpmax=51 / qpstep=4 / cplxblur=20.0 / qblur=0.5 / ip_ratio=1.30 / pb_ratio=1.20 / aq=2:0.80
Language : English
Default : Yes
Forced : No

Audio #1
ID : 2
Format : AC-3
Format/Info : Audio Coding 3
Mode extension : CM (complete main)
Codec ID : A_AC3
Duration : 2h 29mn
Bit rate mode : Constant
Bit rate : 384 Kbps
Channel(s) : 6 channels
Channel positions : Front: L C R, Side: L R, LFE
Sampling rate : 48.0 KHz
Bit depth : 16 bits
Compression mode : Lossy
Stream size : 412 MiB (9%)
Language : Russian
Default : Yes
Forced : No

Audio #2
ID : 3
Format : AC-3
Format/Info : Audio Coding 3
Mode extension : CM (complete main)
Codec ID : A_AC3
Duration : 2h 29mn
Bit rate mode : Constant
Bit rate : 384 Kbps
Channel(s) : 6 channels
Channel positions : Front: L C R, Side: L R, LFE
Sampling rate : 48.0 KHz
Bit depth : 16 bits
Compression mode : Lossy
Stream size : 412 MiB (9%)
Language : English
Default : No
Forced : No

Text #1
ID : 4
Format : UTF-8
Codec ID : S_TEXT/UTF8
Codec ID/Info : UTF-8 Plain Text
Language : Russian
Default : No
Forced : No

Text #2
ID : 5
Format : UTF-8
Codec ID : S_TEXT/UTF8
Codec ID/Info : UTF-8 Plain Text
Title : full
Language : English
Default : No
Forced : No

Text #3
ID : 6
Format : UTF-8
Codec ID : S_TEXT/UTF8
Codec ID/Info : UTF-8 Plain Text
Title : SDH
Language : English
Default : No
Forced : No

Menu
00:00:00.000 : en:Chapter 01
00:08:32.512 : en:Chapter 02
00:15:51.283 : en:Chapter 03
00:19:54.568 : en:Chapter 04
00:27:04.414 : en:Chapter 05
00:32:57.475 : en:Chapter 06
00:43:08.919 : en:Chapter 07
00:46:19.777 : en:Chapter 08
00:56:13.036 : en:Chapter 09
01:01:00.198 : en:Chapter 10
01:04:50.845 : en:Chapter 11
01:21:40.103 : en:Chapter 12
01:24:03.496 : en:Chapter 13
01:25:20.115 : en:Chapter 14
01:33:54.879 : en:Chapter 15
01:39:12.613 : en:Chapter 16
01:51:48.868 : en:Chapter 17
01:58:46.953 : en:Chapter 18
02:03:54.343 : en:Chapter 19
02:06:27.746 : en:Chapter 20
02:11:15.450 : en:Chapter 21
02:17:46.383 : en:Chapter 22
02:29:58.406 : en:Chapter 23




_________________
Проголосуй за трекер Открытый торрент трекер - RUS-MEDIA.ORG

Проголосуй Открытый торрент трекер - RUS-MEDIA.ORG


Вернуться к началу
 Профиль Отправить личное сообщение  
 
   Похожие торренты   Автор   Торрент   Размер 
В этой теме нет новых непрочитанных сообщений. Хроники Нарнии: Покоритель Зари / The Chronicles of Narnia: The Voyage of the Dawn Treader [Фэнтези, приключения, семейный, 2010] BDRemux, Dub

salma3

10 | 6

23.77 ГБ

В этой теме нет новых непрочитанных сообщений. Хроники мутантов / Mutant Chronicles [фантастика, боевик, приключения, 2008] BDRip-AVC, Dub

salma3

182 | 31

742.7 МБ

В этой теме нет новых непрочитанных сообщений. Хроники Шаннары / The Shannara Chronicles [S02] [фантастика, фэнтези, приключения, 2017] BDRip 720p, Mvo [Jaskier, LostFilm]

salma3

0 | 1

22.97 ГБ

В этой теме нет новых непрочитанных сообщений. Хроники Шаннары / The Shannara Chronicles [S02] [фантастика, фэнтези, приключения, 2017] WEB-DLRip 720p, Mvo [ViruseProject]

salma3

9 | 5

12.81 ГБ

В этой теме нет новых непрочитанных сообщений. Хроники Шаннары / The Shannara Chronicles [02x01 из 10] [фантастика, фэнтези, приключения, 2017] WEBRip 720p, Mvo [Good People]

salma3

0 | 0

1.25 ГБ

В этой теме нет новых непрочитанных сообщений. Хроники Шаннары / The Shannara Chronicles [S02] [фантастика, фэнтези, приключения, 2017] WEB-DLRip, Mvo [ViruseProject]

salma3

13 | 7

7.02 ГБ

В этой теме нет новых непрочитанных сообщений. Гарри Поттер и Принц-полукровка / Harry Potter and the Half-Blood Prince [Фэнтези, мелодрама, приключения, 2009] BDRemux 2160p, Dub [4K]

salma3

6 | 20

63.93 ГБ


Начать новую тему Ответить на тему  [ 1 сообщение ] 




Для Мосгорсуда, Роскомнадзора и рекламодателей:: mosgorsud-torrent[собачка]yandex.ru
cron