Торрент файл
скачать торрент магнет ссылка Добавлен: 29 мар 2017, 11:38
Размер: 6.83 ГБ
Сидеров: 0
Личеров: 0
Статус: (salma3)
Автор

СообщениеДобавлено: 29 мар 2017, 11:38 

Не в сети
Супермодератор
Аватара пользователя
Дата регистрации:
15 фев 2012, 16:44
Возраст: 28
Спасибо: 7223 / 2147
Сообщения: 67697
Год выхода: 2007
Жанр: ужасы, фантастика
Режиссер: Дэвид Флорес

В ролях: Джон Шнайдер, Клорис Личмен, Сэм Макмюррей, Андреа Энрайт, Джо Хол, Сара ЛаФлер, Чад Коллинз, Роберт Блaш, Ян Рид Кеслер, ВиДжей Кейл, ...

О фильме: Останки конечностей съеденного заживо бедолаги, найденных в районе озера, взбудоражили маленький городок. Шериф города вместе с натуралистом из Нью-Йорка, оказавшейся бывшей его возлюбленной, и эксцентричным охотником возглавляет команду, призванную пресечь в корне нежелательные повторы ситуации. Но не ожидайте однозначного! Людей начинает пожирать невидимый монстр. Зловещее зрелище кровавого противоборства держит всех горожан в безудержном страхе, а публику в невероятном напряжении…



Страна: США
Продолжительность: 01:27:35
Перевод: Профессиональный (многоголосный, закадровый) R5 «Columbia/Sony»

Кодек: x264
Качество: BDRip 1080p
Видео: 1920x1040, 9212 kbps, 23,976 fps
Аудио #1: AC-3, 6 ch, 448 kbps (Rus) - MVO R5 «Columbia/Sony»
Аудио #2: DTS, 6 ch, 1509 kbps (Eng)
Субтитры: английские
Общее
Уникальный идентификатор : 226094826335237847927622893002579267992 (0xAA184795E5CC74D194F58369934C5198)
Полное имя : Озеро страха 2 (Lake Placid 2) 2007 BDRip 1080p.mkv
Формат : Matroska
Версия формата : Version 2
Размер файла : 6,83 Гбайт
Продолжительность : 1 ч. 27 м.
Общий поток : 11,2 Мбит/сек
Дата кодирования : UTC 2017-03-24 07:45:13
Программа кодирования : mkvmerge v4.0.0 ('The Stars were mine') сборка от Jun 6 2010 16:18:42
Библиотека кодирования : libebml v1.0.0 + libmatroska v1.0.0
Видео
Идентификатор : 1
Формат : AVC
Формат/Информация : Advanced Video Codec
Профиль формата : High@L4.1
Параметр CABAC формата : Да
Параметр ReFrames формата : 4 кадра
Идентификатор кодека : V_MPEG4/ISO/AVC
Продолжительность : 1 ч. 27 м.
Битрейт : 9212 Кбит/сек
Ширина : 1920 пикселей
Высота : 1040 пикселей
Соотношение сторон : 1,85:1
Режим частоты кадров : Постоянный
Частота кадров : 23,976 (24000/1001) кадра/сек
Цветовое пространство : YUV
Субдискретизация насыщенности : 4:2:0
Битовая глубина : 8 бит
Тип развёртки : Прогрессивная
Бит/(Пиксели*Кадры) : 0.192
Размер потока : 5,50 Гбайт (80%)
Библиотека кодирования : x264 core 119 r2106 07efeb4
Настройки программы : cabac=1 / ref=4 / deblock=1:-1:-1 / analyse=0x3:0x112 / me=umh / subme=7 / psy=1 / psy_rd=1.00:0.00 / mixed_ref=1 / me_range=16 / chroma_me=1 / trellis=1 / 8x8dct=1 / cqm=0 / deadzone=21,11 / fast_pskip=1 / chroma_qp_offset=-2 / threads=12 / sliced_threads=0 / nr=0 / decimate=1 / interlaced=0 / bluray_compat=0 / constrained_intra=0 / bframes=3 / b_pyramid=2 / b_adapt=2 / b_bias=0 / direct=1 / weightb=1 / open_gop=0 / weightp=2 / keyint=250 / keyint_min=23 / scenecut=40 / intra_refresh=0 / rc_lookahead=40 / rc=2pass / mbtree=1 / bitrate=9212 / ratetol=1.0 / qcomp=0.60 / qpmin=0 / qpmax=69 / qpstep=4 / cplxblur=20.0 / qblur=0.5 / ip_ratio=1.40 / aq=1:1.00
Язык : English
Default : Нет
Forced : Нет
Аудио #1
Идентификатор : 2
Формат : AC-3
Формат/Информация : Audio Coding 3
Расширение режима : CM (complete main)
Параметр Endianness формата : Big
Идентификатор кодека : A_AC3
Продолжительность : 1 ч. 27 м.
Вид битрейта : Постоянный
Битрейт : 448 Кбит/сек
Каналы : 6 каналов
Расположение каналов : Front: L C R, Side: L R, LFE
Частота : 48,0 КГц
Частота кадров : 31,250 кадров/сек (1536 spf)
Метод сжатия : С потерями
Размер потока : 281 Мбайт (4%)
Заголовок : MVO R5 «Columbia/Sony»
Язык : Russian
Default : Нет
Forced : Нет
Аудио #2
Идентификатор : 3
Формат : DTS
Формат/Информация : Digital Theater Systems
Режим : 16
Параметр Endianness формата : Big
Идентификатор кодека : A_DTS
Продолжительность : 1 ч. 27 м.
Вид битрейта : Постоянный
Битрейт : 1509 Кбит/сек
Каналы : 6 каналов
Расположение каналов : Front: L C R, Side: L R, LFE
Частота : 48,0 КГц
Частота кадров : 93,750 кадра/сек (512 spf)
Битовая глубина : 24 бит
Метод сжатия : С потерями
Задержка видео : 11 мс.
Размер потока : 945 Мбайт (14%)
Язык : English
Default : Нет
Forced : Нет
Текст
Идентификатор : 4
Формат : UTF-8
Идентификатор кодека : S_TEXT/UTF8
Идентификатор кодека/Информация : UTF-8 Plain Text
Язык : English
Default : Нет
Forced : Нет


_________________
Проголосуй за трекер Открытый торрент трекер - RUS-MEDIA.ORG

Проголосуй Открытый торрент трекер - RUS-MEDIA.ORG


Вернуться к началу
 Профиль Отправить личное сообщение  
 
   Похожие торренты   Автор   Торрент   Размер 
В этой теме нет новых непрочитанных сообщений. Озеро страха 4 / Lake Placid: The Final Chapter [ужасы, фантастика, боевик, 2012] WEB-DL 1080p, Mvo

salma3

0 | 0

6.75 ГБ

В этой теме нет новых непрочитанных сообщений. Лэйк Плэсид: Озеро страха / Lake Placid [ужасы, фантастика, боевик, 1999] BDRip 720p, Dub

salma3

0 | 0

3.69 ГБ

В этой теме нет новых непрочитанных сообщений. Озеро страха 4 / Lake Placid: The Final Chapter [ужасы, фантастика, боевик, 2012] WEB-DL 720p, Mvo [ТВ3]

salma3

0 | 0

3.17 ГБ

В этой теме нет новых непрочитанных сообщений. Озеро страха: Анаконда / Lake Placid vs. Anaconda (А.Б. Стоун) [ужасы, фантастика, боевик, 2015] WEB-DL 720p, Mvo [iTunes]

Dracon

1104 | 115

3.01 ГБ

В этой теме нет новых непрочитанных сообщений. Озеро страха: Анаконда / Lake Placid vs. Anaconda (А.Б. Стоун) [ужасы, фантастика, боевик, 2015] WEB-DLRip, Mvo [iTunes]

Dracon

1970 | 72

1.37 ГБ

В этой теме нет новых непрочитанных сообщений. Озеро страха 3 / Lake Placid 3 pужасы, фантастика, боевик, триллер, 2010] DVDRip-AVC, Mvo [Unrated]

salma3

138 | 57

2.73 ГБ

В этой теме нет новых непрочитанных сообщений. Озеро Эри / Lake Eerie [Ужасы, фантастика, триллер, 2016] WEBRip, dvo

marya111

109 | 6

1.65 ГБ


Начать новую тему Ответить на тему  [ 1 сообщение ] 




Для Мосгорсуда, Роскомнадзора и рекламодателей:: mosgorsud-torrent[собачка]yandex.ru
cron