Торрент файл
скачать торрент магнет ссылка Добавлен: 28 мар 2017, 11:11
Размер: 4.73 ГБ
Сидеров: 0
Личеров: 0
Статус: (salma3)
Автор

СообщениеДобавлено: 28 мар 2017, 11:11 

Не в сети
Супермодератор
Аватара пользователя
Дата регистрации:
15 фев 2012, 16:44
Возраст: 28
Спасибо: 6589 / 2145
Сообщения: 44094
Год выхода: 2004
Жанр: ужасы, боевик, триллер
Режиссер: Дуайт Х. Литтл

В ролях: Джонни Месснер, КаДи Стрикленд, Мэттью Мэрсден, Николас Гонзалез, Юджин Бирд, Карл Йун, Салли Ричардсон, Моррис Честнат, Энди Андерсон, Николас Хоуп, ...

О фильме: Научная экспедиция, спонсируемая фармацевтической компанией, отправляется на остров Борнео на поиски загадочной Черной Орхидеи. По преданиям, этот цветок обладает невероятными качествами: он продлевает жизнь и возвращает молодость.
Слухи оказываются правдой: цветок существует, придает силы и продлевает жизнь обитателям джунглей… в том числе и анакондам. Эти исчадия ада стали невероятно быстрыми, дьявольски изощренными и достигли невероятных размеров.
Теперь попавшим врасплох путешественникам предстоит найти выход из лабиринта тропических лесов и избежать встреч с их гигантскими обитателями…



Страна: США
Продолжительность: 01:36:40
Перевод1: Профессиональный (дублированный) Невафильм
Перевод2: Профессиональный (многоголосый, закадровый) Первый канал
Перевод3: Профессиональный (многоголосый, закадровый) СТС
Перевод4: Профессиональный (двуголосый, закадровый) ?
Перевод5: Профессиональный (двуголосый, закадровый) ? с VHS
Перевод6: Авторский (одноголосый, закадровый) Гаврилов Андрей Юрьевич

Кодек: MPEG4/ISO/AVC
Качество: WEB-DL 1080p
Видео: 1920x1080, 5073 kbps, 23,976 fps
Аудио #1: AC-3, 6 ch, 448 kbps (Rus) - ́Dub Невафильм
Аудио #2: AC-3, 2 ch, 192 kbps (Rus) - MVO Первый канал (вставки СТС)
Аудио #3: AC-3, 2 ch, 192 kbps (Rus) - MVO СТС
Аудио #4: AC-3, 2 ch, 192 kbps (Rus) - DVO
Аудио #5: AC-3, 2 ch, 192 kbps (Rus) - DVO VHS
Аудио #6: AC-3, 2 ch, 192 kbps (Rus) - AVO Гаврилов Андрей Юрьевич
Аудио #7: AC-3, 6 ch, 384 kbps (Eng)
Субтитры: Русские, Английские

Общее
Уникальный идентификатор : 196523527829777614064309095654706861656 (0x93D90E00F9F56DA3AEAA63BABA2B5658)
Полное имя : Анаконда 2 Охота за проклятой орхидеей (Anacondas The Hunt for...) 2004 WEB-DL 1080p.mkv
Формат : Matroska
Версия формата : Version 2
Размер файла : 4,73 Гбайт
Продолжительность : 1 ч. 36 м.
Общий поток : 7004 Кбит/сек
Дата кодирования : UTC 2017-03-24 10:53:30
Программа кодирования : mkvmerge v4.0.0 ('The Stars were mine') сборка от Jun 6 2010 16:18:42
Библиотека кодирования : libebml v1.0.0 + libmatroska v1.0.0
Видео
Идентификатор : 1
Формат : AVC
Формат/Информация : Advanced Video Codec
Профиль формата : High@L4
Параметр CABAC формата : Да
Параметр ReFrames формата : 4 кадра
Параметр GOP формата : N=2
Идентификатор кодека : V_MPEG4/ISO/AVC
Продолжительность : 1 ч. 36 м.
Битрейт : 5073 Кбит/сек
Ширина : 1920 пикселей
Высота : 1080 пикселей
Соотношение сторон : 16:9
Режим частоты кадров : Постоянный
Частота кадров : 23,976 кадра/сек
Цветовое пространство : YUV
Субдискретизация насыщенности : 4:2:0
Битовая глубина : 8 бит
Тип развёртки : Прогрессивная
Бит/(Пиксели*Кадры) : 0.102
Размер потока : 3,43 Гбайт (72%)
Язык : English
Default : Нет
Forced : Нет
Цветовой диапазон : Limited
Основные цвета : BT.709
Характеристики трансфера : BT.709
Коэффициенты матрицы : BT.709
Аудио #1
Идентификатор : 2
Формат : AC-3
Формат/Информация : Audio Coding 3
Расширение режима : CM (complete main)
Параметр Endianness формата : Big
Идентификатор кодека : A_AC3
Продолжительность : 1 ч. 36 м.
Вид битрейта : Постоянный
Битрейт : 448 Кбит/сек
Каналы : 6 каналов
Расположение каналов : Front: L C R, Side: L R, LFE
Частота : 48,0 КГц
Частота кадров : 31,250 кадров/сек (1536 spf)
Метод сжатия : С потерями
Размер потока : 310 Мбайт (6%)
Заголовок : ́Dub Невафильм
Язык : Russian
Default : Нет
Forced : Нет
Аудио #2
Идентификатор : 3
Формат : AC-3
Формат/Информация : Audio Coding 3
Расширение режима : CM (complete main)
Параметр Endianness формата : Big
Идентификатор кодека : A_AC3
Продолжительность : 1 ч. 36 м.
Вид битрейта : Постоянный
Битрейт : 192 Кбит/сек
Каналы : 2 канала
Расположение каналов : Front: L R
Частота : 48,0 КГц
Частота кадров : 31,250 кадров/сек (1536 spf)
Метод сжатия : С потерями
Размер потока : 133 Мбайт (3%)
Заголовок : MVO Первый канал (вставки СТС)
Язык : Russian
Default : Нет
Forced : Нет
Аудио #3
Идентификатор : 4
Формат : AC-3
Формат/Информация : Audio Coding 3
Расширение режима : CM (complete main)
Параметр Endianness формата : Big
Идентификатор кодека : A_AC3
Продолжительность : 1 ч. 36 м.
Вид битрейта : Постоянный
Битрейт : 192 Кбит/сек
Каналы : 2 канала
Расположение каналов : Front: L R
Частота : 48,0 КГц
Частота кадров : 31,250 кадров/сек (1536 spf)
Метод сжатия : С потерями
Размер потока : 133 Мбайт (3%)
Заголовок : MVO СТС
Язык : Russian
Default : Нет
Forced : Нет
Аудио #4
Идентификатор : 5
Формат : AC-3
Формат/Информация : Audio Coding 3
Расширение режима : CM (complete main)
Параметр Endianness формата : Big
Идентификатор кодека : A_AC3
Продолжительность : 1 ч. 36 м.
Вид битрейта : Постоянный
Битрейт : 192 Кбит/сек
Каналы : 2 канала
Расположение каналов : Front: L R
Частота : 48,0 КГц
Частота кадров : 31,250 кадров/сек (1536 spf)
Метод сжатия : С потерями
Размер потока : 133 Мбайт (3%)
Заголовок : DVO
Язык : Russian
Default : Нет
Forced : Нет
Аудио #5
Идентификатор : 6
Формат : AC-3
Формат/Информация : Audio Coding 3
Расширение режима : CM (complete main)
Параметр Endianness формата : Big
Идентификатор кодека : A_AC3
Продолжительность : 1 ч. 36 м.
Вид битрейта : Постоянный
Битрейт : 192 Кбит/сек
Каналы : 2 канала
Расположение каналов : Front: L R
Частота : 48,0 КГц
Частота кадров : 31,250 кадров/сек (1536 spf)
Метод сжатия : С потерями
Размер потока : 133 Мбайт (3%)
Заголовок : DVO VHS
Язык : Russian
Default : Нет
Forced : Нет
Аудио #6
Идентификатор : 7
Формат : AC-3
Формат/Информация : Audio Coding 3
Расширение режима : CM (complete main)
Параметр Endianness формата : Big
Идентификатор кодека : A_AC3
Продолжительность : 1 ч. 36 м.
Вид битрейта : Постоянный
Битрейт : 192 Кбит/сек
Каналы : 2 канала
Расположение каналов : Front: L R
Частота : 48,0 КГц
Частота кадров : 31,250 кадров/сек (1536 spf)
Метод сжатия : С потерями
Размер потока : 133 Мбайт (3%)
Заголовок : AVO Гаврилов Андрей Юрьевич
Язык : Russian
Default : Нет
Forced : Нет
Аудио #7
Идентификатор : 8
Формат : AC-3
Формат/Информация : Audio Coding 3
Расширение режима : CM (complete main)
Параметр Endianness формата : Big
Идентификатор кодека : A_AC3
Продолжительность : 1 ч. 36 м.
Вид битрейта : Постоянный
Битрейт : 384 Кбит/сек
Каналы : 6 каналов
Расположение каналов : Front: L C R, Side: L R, LFE
Частота : 48,0 КГц
Частота кадров : 31,250 кадров/сек (1536 spf)
Метод сжатия : С потерями
Размер потока : 266 Мбайт (5%)
Язык : English
Default : Нет
Forced : Нет
Текст #1
Идентификатор : 9
Формат : UTF-8
Идентификатор кодека : S_TEXT/UTF8
Идентификатор кодека/Информация : UTF-8 Plain Text
Язык : Russian
Default : Нет
Forced : Нет
Текст #2
Идентификатор : 10
Формат : UTF-8
Идентификатор кодека : S_TEXT/UTF8
Идентификатор кодека/Информация : UTF-8 Plain Text
Язык : English
Default : Нет
Forced : Нет


_________________
Проголосуй за трекер Открытый торрент трекер - RUS-MEDIA.ORG

Проголосуй Открытый торрент трекер - RUS-MEDIA.ORG



реклама партнёра


Вернуться к началу
 Профиль Отправить личное сообщение  
 
   Похожие торренты   Автор   Торрент   Размер 
В этой теме нет новых непрочитанных сообщений. Анаконда 2: Охота за проклятой орхидеей / Anacondas: The Hunt for the Blood Orchid [Ужасы, Боевик, Триллер, 2004] WEB-DLRip-AVC, Dub

salma3

95 | 15

2.91 ГБ

В этой теме нет новых непрочитанных сообщений. Анаконда 4: Кровавый след / Anacondas 4: Trail of Blood [ужасы, фантастика, боевик, 2009] DVDRip-AVC, Dvo

salma3

109 | 42

2.75 ГБ

В этой теме нет новых непрочитанных сообщений. Кровавая охота / Blood Hunt [Ужасы, 2017] DVDRip, Avo

salma3

2005 | 121

734.35 МБ

В этой теме нет новых непрочитанных сообщений. Американский ниндзя 3: Кровавая охота / American Ninja 3: Blood Hunt [боевик, драма, 1989] HDRip, Mvo [СТС]

salma3

36 | 12

1.45 ГБ

В этой теме нет новых непрочитанных сообщений. Последняя охота / The Hunt [Ужасы, фантастика, триллер, 2006] DVDRip, Dvo

salma3

232 | 110

1.37 ГБ

В этой теме нет новых непрочитанных сообщений. Охота / Jagten / The Hunt [драма, 2012] BDRip 1080p, Mvo

salma3

13 | 11

7.19 ГБ

В этой теме нет новых непрочитанных сообщений. Анаконда / Anaconda [ужасы, боевик, триллер, 1997] BDRip, Mvo

salma3

93 | 14

1.46 ГБ


Начать новую тему Ответить на тему  [ 1 сообщение ] 




Для Мосгорсуда, Роскомнадзора и рекламодателей:: mosgorsud-torrent[собачка]yandex.ru