Торрент файл
скачать торрент магнет ссылка Добавлен: 27 мар 2017, 20:43
Размер: 8.33 ГБ
Сидеров: 0
Личеров: 0
Статус: (salma3)
Автор

СообщениеДобавлено: 27 мар 2017, 20:43 

Не в сети
Супермодератор
Аватара пользователя
Дата регистрации:
15 фев 2012, 16:44
Возраст: 28
Спасибо: 7059 / 2147
Сообщения: 58936
Год выхода: 2008
Жанр: боевик, триллер
Режиссер: Джастин Б. Родс

В ролях: Фрида Шоу, Ник Манкузо, Ретт Джиллз, Кристиан Уиллис, Дж. Энтони Джозеф, Вольф Музер, Ли Шерман, Пол Крэм, Джастин Смит, ...

О фильме: Фильм переносит зрителей в мир, в котором молодая девушка бежит от крупной компании, где она когда-то работала, на красивый и процветающий карибский остров. Девушка знает секреты компании, и является свидетелем ее причастности к мошенничеству. В игру вступает наемный убийца Иосиф, житель острова и наемник компании, чтобы устранить Джейн…



Страна: США
Продолжительность: 01:26:23
Перевод: Профессиональный (двуголосый, закадровый) ?

Кодек: x264
Качество: BDRip 1080p
Видео: 1920x1080, 12000 kbps, 23,976 fps
Аудио #1: AC-3, 6 ch, 320 kbps (Rus) - DVO
Аудио #2: DTS, 6 ch, 1509 kbps (Eng)
Субтитры: нет

За исходник спасибо - ШыШкА
x264 [info]: frame I:818 Avg QP:18.06 size:199566
x264 [info]: frame P:32077 Avg QP:20.13 size: 87568
x264 [info]: frame B:91382 Avg QP:22.03 size: 52407
x264 [info]: consecutive B-frames: 3.9% 7.8% 15.8% 12.2% 16.2% 37.0% 4.5% 0.8% 0.5% 0.6% 0.7%

Общее
Уникальный идентификатор : 177103870044305509605714820992870192042 (0x853CF6F3DC5870A49FA72DA64A7913AA)
Полное имя : Наёмные убийцы (Contract Killers) 2009 BDRip 1080p.mkv
Формат : Matroska
Версия формата : Version 2
Размер файла : 8,33 Гбайт
Продолжительность : 1 ч. 26 м.
Общий поток : 13,8 Мбит/сек
Дата кодирования : UTC 2017-03-25 18:18:05
Программа кодирования : mkvmerge v4.0.0 ('The Stars were mine') сборка от Jun 6 2010 16:18:42
Библиотека кодирования : libebml v1.0.0 + libmatroska v1.0.0

Видео
Идентификатор : 1
Формат : AVC
Формат/Информация : Advanced Video Codec
Профиль формата : High@L4.1
Параметр CABAC формата : Да
Параметр ReFrames формата : 4 кадра
Идентификатор кодека : V_MPEG4/ISO/AVC
Продолжительность : 1 ч. 26 м.
Битрейт : 12,0 Мбит/сек
Ширина : 1920 пикселей
Высота : 1080 пикселей
Соотношение сторон : 16:9
Режим частоты кадров : Постоянный
Частота кадров : 23,976 (24000/1001) кадра/сек
Цветовое пространство : YUV
Субдискретизация насыщенности : 4:2:0
Битовая глубина : 8 бит
Тип развёртки : Прогрессивная
Бит/(Пиксели*Кадры) : 0.241
Размер потока : 7,06 Гбайт (85%)
Библиотека кодирования : x264 core 146 r2538 121396c
Настройки программы : cabac=1 / ref=4 / deblock=1:-1:-1 / analyse=0x3:0x133 / me=umh / subme=11 / psy=1 / psy_rd=1.00:0.00 / mixed_ref=1 / me_range=32 / chroma_me=1 / trellis=2 / 8x8dct=1 / cqm=0 / deadzone=21,11 / fast_pskip=0 / chroma_qp_offset=-2 / threads=12 / lookahead_threads=2 / sliced_threads=0 / nr=0 / decimate=0 / interlaced=0 / bluray_compat=0 / constrained_intra=0 / bframes=10 / b_pyramid=2 / b_adapt=2 / b_bias=0 / direct=3 / weightb=1 / open_gop=0 / weightp=2 / keyint=240 / keyint_min=23 / scenecut=40 / intra_refresh=0 / rc=2pass / mbtree=0 / bitrate=12000 / ratetol=1.0 / qcomp=0.60 / qpmin=0 / qpmax=69 / qpstep=4 / cplxblur=20.0 / qblur=0.5 / ip_ratio=1.40 / pb_ratio=1.30 / aq=3:0.90
Язык : English
Default : Нет
Forced : Нет

Аудио #1
Идентификатор : 2
Формат : AC-3
Формат/Информация : Audio Coding 3
Расширение режима : CM (complete main)
Параметр Endianness формата : Big
Идентификатор кодека : A_AC3
Продолжительность : 1 ч. 26 м.
Вид битрейта : Постоянный
Битрейт : 320 Кбит/сек
Каналы : 6 каналов
Расположение каналов : Front: L C R, Side: L R, LFE
Частота : 48,0 КГц
Частота кадров : 31,250 кадров/сек (1536 spf)
Метод сжатия : С потерями
Размер потока : 198 Мбайт (2%)
Заголовок : DVO
Язык : Russian
Default : Нет
Forced : Нет

Аудио #2
Идентификатор : 3
Формат : DTS
Формат/Информация : Digital Theater Systems
Режим : 16
Параметр Endianness формата : Big
Идентификатор кодека : A_DTS
Продолжительность : 1 ч. 26 м.
Вид битрейта : Постоянный
Битрейт : 1509 Кбит/сек
Каналы : 6 каналов
Расположение каналов : Front: L C R, Side: L R, LFE
Частота : 48,0 КГц
Частота кадров : 93,750 кадра/сек (512 spf)
Битовая глубина : 24 бит
Метод сжатия : С потерями
Размер потока : 932 Мбайт (11%)
Язык : English
Default : Нет
Forced : Нет


_________________
Проголосуй за трекер Открытый торрент трекер - RUS-MEDIA.ORG

Проголосуй Открытый торрент трекер - RUS-MEDIA.ORG


Вернуться к началу
 Профиль Отправить личное сообщение  
 
   Похожие торренты   Автор   Торрент   Размер 
В этой теме нет новых непрочитанных сообщений. Наемные убийцы / Assassins [боевик, триллер, криминал, 1995] BDRip-HEVC 1080p, Dub

salma3

0 | 0

5.03 ГБ

В этой теме нет новых непрочитанных сообщений. Наемные убийцы / Assassins [Боевик, триллер, криминал, 1995] BDRip-AVC, Dub

salma3

38 | 11

1.46 ГБ

В этой теме нет новых непрочитанных сообщений. Наемные убийцы / Assassins [Боевик, триллер, криминал, 1995] BDRip-AVC, Dub

salma3

7 | 0

745.85 МБ

В этой теме нет новых непрочитанных сообщений. Наемные убийцы / Assassins [Боевик, триллер, криминал, 1995] BDRemux 1080p, Dub

salma3

4 | 6

26.38 ГБ

В этой теме нет новых непрочитанных сообщений. Наемные убийцы / Assassins [Боевик, триллер, криминал, 1995] BDRip 720p, Dub

salma3

1 | 32

7.75 ГБ

В этой теме нет новых непрочитанных сообщений. Наемные убийцы / Assassins [боевик, триллер, криминал, 1995] HDRip, Dub

salma3

60 | 16

2.17 ГБ

В этой теме нет новых непрочитанных сообщений. Убийцы на замену / The Replacement Killers [боевик, криминал, драма, триллер, 1998] BDRemux 1080p, Mvo [Extended Cut]

salma3

3 | 2

23.42 ГБ


Начать новую тему Ответить на тему  [ 1 сообщение ] 




Для Мосгорсуда, Роскомнадзора и рекламодателей:: mosgorsud-torrent[собачка]yandex.ru
cron