Торрент файл
скачать торрент магнет ссылка Добавлен: 26 мар 2017, 12:36
Размер: 8.61 ГБ
Сидеров: 38
Личеров: 12
Статус: (salma3)
Автор

СообщениеДобавлено: 26 мар 2017, 12:36 

Не в сети
Супермодератор
Аватара пользователя
Дата регистрации:
15 фев 2012, 16:44
Возраст: 28
Спасибо: 6672 / 2146
Сообщения: 46181
Год выхода: 1970
Жанр: драма, военный, биография, история
Режиссер: Кен Хьюз

В ролях: Ричард Харрис, Алек Гиннесс, Роберт Морли, Дороти Тьютин, Фрэнк Финлей, Тимоти Далтон, Патрик Уаймарк, Патрик Мэги, Найджел Сток, Чарльз Грей

О фильме:
Достоверное историческое повествование о гражданской войне XVII века, разделившей Англию на два противоборствующих лагеря, об английской буржуазной революции. Основное внимание в картине уделяется конфронтации Оливера Кромвеля и короля Карла I. Кромвель — идеалист, преданный своему делу, с холодными, измученными глазами, хриплым голосом и несгибаемым духом. Он настроен любой ценой спасти свою любимую Англию от коррупции слабого, жадного двора и установить власть парламента, который был бы по-настоящему демократическим, выражал интересы народа, не являлся бы игрушкой короля…



Страна: Великобритания
Продолжительность: 02:19:38
Перевод: Профессиональный (двухголосый закадровый) - НТВ+
Язык Субтитров: Русский, Английский
Вид субтитров: Вшитые, отключаемые

Файл
Качество: BDRip 1080p
Видео: High@L4.1, ~8265 Кбит/с, 1920x804, 23.976 кадр/с
Звук #1: AC3, 2 ch, 192 Кбит/с (НТВ+)
Звук #2: AC3, 2 ch, 192 Кбит/с (ENG)

General
Unique ID : 199389991031724179901780787644182238749 (0x96011D8D13A44D3ADA1582BBB953161D)
Complete name : D:КИНОКромвель.(1970).BLU-RAY.1080p.[-=DoMiNo=-].mkv
Format : Matroska
Format version : Version 4 / Version 2
File size : 8.61 GiB
Duration : 2 h 19 min
Overall bit rate : 8 825 kb/s
Movie name : Кромвель
Deion : Достоверное историческое повествование о гражданской войне XVII века, разделившей Англию на два противоборствующих лагеря, об английской буржуазной революции. Основное внимание в картине уделяется конфронтации Оливера Кромвеля и короля Карла I. / Кромвель — идеалист, преданный своему делу, с холодными, измученными глазами, хриплым голосом и несгибаемым духом. Он настроен любой ценой спасти свою любимую Англию от коррупции слабого, жадного двора и установить власть парламента, который был бы по-настоящему демократическим, выражал интересы народа, не являлся бы игрушкой короля…
Writing application : XviD4PSP 7.0.369 DAILY
Writing library : Lavf57.41.100 / Lavf57.41.100
Attachments : poster.png
ACTORS : Ричард Харрис, Алек Гиннесс, Роберт Морли, Дороти Тьютин, Фрэнк Финлей, Тимоти Далтон, Патрик Уаймарк, Патрик Мэги, Найджел Сток, Чарльз Грей, Майкл Джэйстон, Ричард Корниш, Анна Кроппер, Майкл Гудлифф, Джек Гвиллим, Бейзил Хенсон, Патрик Холт, Стрэтфорд Джонс, Джеффри Кин, Энтони Мэй, Иэн МакКаллок, Патрик О’Коннелл, Джон Пол, Льюэллин Рис, Робин Стюарт, Андре Ван Гизегем, Зена Уолкер, Джон Уэлш, Дуглас Уилмер, Энтони Кемп, Стэйси Дорнинг, Мэл Чёрчер, Джордж Мерритт, Джералд Роулэнд, Josephine Gillick, Питер Беннетт, Тони Каунтер, Джордж А. Купер, Брайан Прингл, Льюис Александр, Дэвид Чаркхэм, Харольд Койн, Гарри Филдер, Джон Форбс-Робертсон, Виктор Хэррингтон, Эдвард Кемп, Найджел Кингсли, Рой Лэнсфорд, Виктор Маддерн, Пол Тропеа, Розетта Тропеа, Фред Вуд
COMPOSER : Фрэнк Корделл
COUNTRY : Великобритания
DATE : 1970
DIRECTOR : Кен Хьюз
ENCODING_INFO : BluRay > MKV 1080p / H264 > X264 CRF 17.0 Произвольный / AC3 > COPY Безопасное / DTS-HD MA > AC3 CBR 192kbps
GENRE : драма, военный, биография, история
HD_VIDEO : 1
IMDB_RATING : 6.90
ITUNEXTC : mpaa|G|100|
MEDIA_TYPE : 9
ORIGINAL_ACTORS : Richard Harris, Alec Guinness, Robert Morley, Dorothy Tutin, Frank Finlay, Timothy Dalton, Patrick Wymark, Patrick Magee, Nigel Stock, Charles Gray, Michael Jayston, Richard Cornish, Anna Cropper, Michael Goodliffe, Jack Gwillim, Basil Henson, Patrick Holt, Stratford Johns, Geoffrey Keen, Anthony May, Ian McCulloch, Patrick O'Connell, John Paul, Llewellyn Rees, Robin Stewart, Andre Van Gyseghem, Zena Walker, John Welsh, Douglas Wilmer, Anthony Kemp, Stacy Dorning, Mel Churcher (в титрах: Melinda Churcher), George Merritt, Gerald Rowland, Peter Bennett, Tony Caunter, George A. Cooper, Bryan Pringle, Lewis Alexander, David Charkham, Harold Coyne, Harry Fielder, John Forbes-Robertson, Victor Harrington, Edward Kemp, Nigel Kingsley, Roy Lansford, Victor Maddern, Paul Tropea, Rosetta Tropea, Fred Wood
ORIGINAL_TITLE : Cromwell
PRODUCER : Ирвинг Аллен, Эндрю Донэлли
RATING : 7.435
WRITER : Кен Хьюз

Video
ID : 1
Format : AVC
Format/Info : Advanced Video Codec
Format profile : High@L4.1
Format settings, CABAC : Yes
Format settings, ReFrames : 5 frames
Codec ID : V_MPEG4/ISO/AVC
Duration : 2 h 19 min
Bit rate : 8 265 kb/s
Width : 1 920 pixels
Height : 804 pixels
Display aspect ratio : 2.40:1
Frame rate mode : Constant
Frame rate : 23.976 (24000/1001) FPS
Color space : YUV
Chroma subsampling : 4:2:0
Bit depth : 8 bits
Scan type : Progressive
Bits/(Pixel*Frame) : 0.223
Stream size : 8.06 GiB (94%)
Title : BLU-RAY_1080p_RIP-BY--=DoMiNo=-
Writing library : x264 core 148 r2762M 90a61ec
Encoding settings : cabac=1 / ref=5 / deblock=1:-3:-3 / analyse=0x3:0x113 / me=umh / subme=11 / psy=1 / psy_rd=1.00:0.10 / mixed_ref=1 / me_range=48 / chroma_me=1 / trellis=2 / 8x8dct=1 / cqm=0 / deadzone=21,11 / fast_pskip=0 / chroma_qp_offset=-3 / threads=8 / lookahead_threads=1 / sliced_threads=0 / nr=0 / decimate=1 / interlaced=0 / bluray_compat=0 / constrained_intra=0 / bframes=8 / b_pyramid=2 / b_adapt=2 / b_bias=0 / direct=3 / weightb=1 / open_gop=0 / weightp=2 / keyint=230 / keyint_min=23 / scenecut=40 / intra_refresh=0 / rc=crf / mbtree=0 / crf=17.0 / qcomp=0.65 / qpmin=0 / qpmax=69 / qpstep=4 / ip_ratio=1.40 / pb_ratio=1.30 / aq=1:1.00
Default : Yes
Forced : No
Color range : Limited
Color primaries : BT.709
Transfer characteristics : BT.709
Matrix coefficients : BT.709
DURATION : 02:19:38.620000000

Audio #1
ID : 2
Format : AC-3
Format/Info : Audio Coding 3
Format settings, Endianness : Big
Codec ID : A_AC3
Duration : 2 h 19 min
Bit rate mode : Constant
Bit rate : 192 kb/s
Channel(s) : 2 channels
Channel positions : Front: L R
Sampling rate : 48.0 kHz
Frame rate : 31.250 FPS (1536 spf)
Bit depth : 16 bits
Compression mode : Lossy
Delay relative to video : -83 ms
Stream size : 192 MiB (2%)
Title : P2_НТВ+
Language : Russian
Service kind : Complete Main
Default : Yes
Forced : No
DURATION : 02:19:38.560000000

Audio #2
ID : 3
Format : AC-3
Format/Info : Audio Coding 3
Format settings, Endianness : Big
Codec ID : A_AC3
Duration : 2 h 19 min
Bit rate mode : Constant
Bit rate : 192 kb/s
Channel(s) : 2 channels
Channel positions : Front: L R
Sampling rate : 48.0 kHz
Frame rate : 31.250 FPS (1536 spf)
Bit depth : 16 bits
Compression mode : Lossy
Delay relative to video : -83 ms
Stream size : 192 MiB (2%)
Title : ENG
Language : English
Service kind : Complete Main
Default : No
Forced : No
DURATION : 02:19:38.560000000

Text #1
ID : 4
Format : VobSub
Codec ID : S_VOBSUB
Codec ID/Info : Picture based subtitle format used on DVDs
Title : RUS
Language : Russian
Default : Yes
Forced : No
DURATION : 02:19:22.979000000

Text #2
ID : 5
Format : VobSub
Codec ID : S_VOBSUB
Codec ID/Info : Picture based subtitle format used on DVDs
Title : ENG
Language : English
Default : No
Forced : No
DURATION : 02:19:14.345000000

Menu
00:00:00.000 : :Глава 1
00:03:32.086 : :Глава 2
00:18:49.253 : :Глава 3
00:26:49.816 : :Глава 4
00:40:40.020 : :Глава 5
00:57:12.637 : :Глава 6
01:10:13.125 : :Глава 7
01:24:23.183 : :Глава 8
01:39:07.066 : :Глава 9
01:51:08.787 : :Глава 10
02:04:45.478 : :Глава 11


_________________
Проголосуй за трекер Открытый торрент трекер - RUS-MEDIA.ORG

Проголосуй Открытый торрент трекер - RUS-MEDIA.ORG



реклама партнёра


Вернуться к началу
 Профиль Отправить личное сообщение  
 
   Похожие торренты   Автор   Торрент   Размер 
В этой теме нет новых непрочитанных сообщений. Кромвель / Cromwell [драма, военный, биография, история, 1970] BDRip, Dvo [НТВ+]

salma3

108 | 39

1.46 ГБ

В этой теме нет новых непрочитанных сообщений. Кромвель / Cromwell [драма, военный, биография, история, 1970] BDRip 720p, Dvo [НТВ+]

salma3

97 | 12

3.72 ГБ

В этой теме нет новых непрочитанных сообщений. Кромвель / Cromwell [драма, военный, биография, история, 1970] HDRip, Dvo [НТВ+]

salma3

126 | 15

2.18 ГБ

В этой теме нет новых непрочитанных сообщений. Маленький большой человек / Little Big Man [драма, приключения, вестерн, военный, история, 1970] BDRip 1080p, Mvo+Avo+Sub

salma3

17 | 1

7.01 ГБ

В этой теме нет новых непрочитанных сообщений. Кундун / Kundun [Драма, военный, биография, история, 1997] BDRip 1080p, Mvo+Avo+Sub

salma3

7 | 3

11.17 ГБ

В этой теме нет новых непрочитанных сообщений. Небо и земля / Heaven & Earth [Боевик, драма, военный, биография, история, 1993] BDRip 1080p, Dvo

salma3

33 | 19

15.1 ГБ

В этой теме нет новых непрочитанных сообщений. Жена смотрителя зоопарка / The Zookeeper's Wife [драма, военный, биография, история, 2017] BDRip 1080p, Dub [iTunes]

salma3

140 | 57

9.16 ГБ


Начать новую тему Ответить на тему  [ 1 сообщение ] 




Для Мосгорсуда, Роскомнадзора и рекламодателей:: mosgorsud-torrent[собачка]yandex.ru