Торрент файл
скачать торрент магнет ссылка Добавлен: 23 мар 2017, 22:02
Размер: 8.22 ГБ
Сидеров: 25
Личеров: 8
Статус: (salma3)
Автор

СообщениеДобавлено: 23 мар 2017, 22:02 

Не в сети
Супермодератор
Аватара пользователя
Дата регистрации:
15 фев 2012, 16:44
Возраст: 28
Спасибо: 6642 / 2146
Сообщения: 45664
Год выхода: 2007
Жанр: ужасы, триллер
Режиссер: Том Эберхардт

В ролях: Даниэль Де Люка, Соня Рунар, Рональд Дюнас, Аррон Шивер, Дж.Д. Гарфилд, Робин Рид, Калила Чеккарелли, Мэл МакКэрон, Дженни Марлоу, Ретт Линч, ...

О фильме: Девушка по имени Диана бесследно исчезает… Очнувшись в глухой безлюдной местности, несчастная девушка делает для себя ужасное открытие — она стала мишенью для сумасшедшего охотника организовавшего охоту на человека. Инстинкт самосохранения подсказывает доведенной до отчаяния Диане, что единственный способ выжить — это нанести ответный удар…



Страна: США
Продолжительность: 01:43:39
Перевод: Профессиональный (многоголосный, закадровый) [Первый ТВЧ]

Кодек: x264
Качество: BDRip 1080p
Видео: 1916x1076, 10400 kbps, 25 fps
Аудио #1: AC-3, 2 ch, 192 kbps (Rus) - MVO Первый ТВЧ
Аудио #2: DTS, 6 ch, 768 kbps (Eng)

За исходник спасибо - Викс
x264 [info]: frame I:1012 Avg QP:16.52 size:179939
x264 [info]: frame P:29451 Avg QP:19.07 size: 93022
x264 [info]: frame B:125021 Avg QP:20.92 size: 41273
x264 [info]: consecutive B-frames: 1.4% 1.8% 4.3% 9.9% 6.4% 64.9% 2.4% 1.3% 6.5% 0.5% 0.7%

Общее
Уникальный идентификатор : 208389119573627505094523833253338589581 (0x9CC648D814BB5438B76A06478620A98D)
Полное имя : Обнаженный страх (Naked Fear) 2007 BDRip 1080p.mkv
Формат : Matroska
Версия формата : Version 2
Размер файла : 8,22 Гбайт
Продолжительность : 1 ч. 43 м.
Общий поток : 11,4 Мбит/сек
Дата кодирования : UTC 2017-03-21 21:18:02
Программа кодирования : mkvmerge v4.0.0 ('The Stars were mine') сборка от Jun 6 2010 16:18:42
Библиотека кодирования : libebml v1.0.0 + libmatroska v1.0.0

Видео
Идентификатор : 1
Формат : AVC
Формат/Информация : Advanced Video Codec
Профиль формата : High@L4.1
Параметр CABAC формата : Да
Параметр ReFrames формата : 4 кадра
Идентификатор кодека : V_MPEG4/ISO/AVC
Продолжительность : 1 ч. 43 м.
Битрейт : 10,4 Мбит/сек
Ширина : 1916 пикселей
Высота : 1076 пикселей
Соотношение сторон : 16:9
Режим частоты кадров : Постоянный
Частота кадров : 25,000 кадров/сек
Цветовое пространство : YUV
Субдискретизация насыщенности : 4:2:0
Битовая глубина : 8 бит
Тип развёртки : Прогрессивная
Бит/(Пиксели*Кадры) : 0.202
Размер потока : 7,36 Гбайт (90%)
Библиотека кодирования : x264 core 146 r2538 121396c
Настройки программы : cabac=1 / ref=4 / deblock=1:-3:-3 / analyse=0x3:0x133 / me=umh / subme=11 / psy=1 / psy_rd=1.00:0.00 / mixed_ref=1 / me_range=32 / chroma_me=1 / trellis=2 / 8x8dct=1 / cqm=0 / deadzone=21,11 / fast_pskip=0 / chroma_qp_offset=-2 / threads=12 / lookahead_threads=2 / sliced_threads=0 / nr=0 / decimate=0 / interlaced=0 / bluray_compat=0 / constrained_intra=0 / bframes=10 / b_pyramid=2 / b_adapt=2 / b_bias=0 / direct=3 / weightb=1 / open_gop=0 / weightp=2 / keyint=250 / keyint_min=25 / scenecut=40 / intra_refresh=0 / rc=2pass / mbtree=0 / bitrate=10400 / ratetol=1.0 / qcomp=0.60 / qpmin=0 / qpmax=69 / qpstep=4 / cplxblur=20.0 / qblur=0.5 / ip_ratio=1.40 / pb_ratio=1.30 / aq=1:0.80
Язык : English
Default : Нет
Forced : Нет

Аудио #1
Идентификатор : 2
Формат : AC-3
Формат/Информация : Audio Coding 3
Расширение режима : CM (complete main)
Параметр Endianness формата : Big
Идентификатор кодека : A_AC3
Продолжительность : 1 ч. 43 м.
Вид битрейта : Постоянный
Битрейт : 192 Кбит/сек
Каналы : 2 канала
Расположение каналов : Front: L R
Частота : 48,0 КГц
Частота кадров : 31,250 кадров/сек (1536 spf)
Метод сжатия : С потерями
Размер потока : 142 Мбайт (2%)
Заголовок : MVO Первый ТВЧ
Язык : Russian
Default : Нет
Forced : Нет

Аудио #2
Идентификатор : 3
Формат : DTS
Формат/Информация : Digital Theater Systems
Режим : 16
Параметр Endianness формата : Big
Идентификатор кодека : A_DTS
Продолжительность : 1 ч. 43 м.
Вид битрейта : Постоянный
Битрейт : 768 Кбит/сек
Каналы : 6 каналов
Расположение каналов : Front: L C R, Side: L R, LFE
Частота : 48,0 КГц
Частота кадров : 93,750 кадра/сек (512 spf)
Битовая глубина : 16 бит
Метод сжатия : С потерями
Задержка видео : 11 мс.
Размер потока : 569 Мбайт (7%)
Язык : English
Default : Нет
Forced : Нет


_________________
Проголосуй за трекер Открытый торрент трекер - RUS-MEDIA.ORG

Проголосуй Открытый торрент трекер - RUS-MEDIA.ORG



реклама партнёра


Вернуться к началу
 Профиль Отправить личное сообщение  
 
   Похожие торренты   Автор   Торрент   Размер 
В этой теме нет новых непрочитанных сообщений. Корпорация «Страх» / Fear, Inc. [ужасы, триллер, комедия, 2016] BDRip 1080p, Avo

salma3

315 | 141

6.95 ГБ

В этой теме нет новых непрочитанных сообщений. Страх / Fear [Триллер, ужасы, драма, 1996] BDRemux 1080p, Dub

salma3

5 | 2

22.95 ГБ

В этой теме нет новых непрочитанных сообщений. Страх темноты / The Fear of Darkness [триллер, 2015] BDRip 1080p, Dub [iTunes]

salma3

361 | 127

6.78 ГБ

В этой теме нет новых непрочитанных сообщений. Корпорация «Страх» / Fear, Inc. [ужасы, триллер, комедия, 2016] WEB-DLRip, Avo

salma3

438 | 120

1.27 ГБ

В этой теме нет новых непрочитанных сообщений. Страх темноты / The Fear of Darkness [ужасы, триллер, 2015] HDRip, Dub [iTunes]

salma3

4244 | 669

1.45 ГБ

В этой теме нет новых непрочитанных сообщений. Страх / Fear [триллер, драма, 1996] BDRip 720p, Dub

salma3

3 | 7

8.17 ГБ

В этой теме нет новых непрочитанных сообщений. Страх клоунов / Боязнь клоунов / Fear of Clowns [Ужасы, триллер, 2004] DVDRip, Dvo

salma3

117 | 41

703.58 МБ


Начать новую тему Ответить на тему  [ 1 сообщение ] 




Для Мосгорсуда, Роскомнадзора и рекламодателей:: mosgorsud-torrent[собачка]yandex.ru