Торрент файл
скачать торрент магнет ссылка Добавлен: 23 мар 2017, 12:11
Размер: 4.88 ГБ
Сидеров: 67
Личеров: 34
Статус: (salma3)
Автор

СообщениеДобавлено: 23 мар 2017, 12:11 

Не в сети
Супермодератор
Аватара пользователя
Дата регистрации:
15 фев 2012, 16:44
Возраст: 28
Спасибо: 6640 / 2146
Сообщения: 45613
Год выхода: 2007
Жанр: боевик, драма, военный, история
Режиссер: Питер Чан, Рэймонд Ип

В ролях: Джет Ли, Энди Лау, Такеши Канеширо, Сюй Цзинлэй, Го Сяодун, Джеки Хён, Жонгван Вэй, Бао-мин Гу, Куиронг Ванг, Бо Чжоу

О фильме:
Полководец, потерявший в одном из жестоких сражений все свое войско, и два вожака шайки грабителей дают клятву быть братьями, сражаться вместе и защищать друг друга. Три воина ставят перед собой масштабную задачу: остановить гражданскую войну и сделать свою страну мирной и процветающей. На пути к этой цели их ждут кровавые сражения, жестокий выбор — пожертвовать несколькими тысячами человек, чтобы спасти сотни тысяч жизней. Трем полководцам предстоит ответить на вопрос — что такое война: защита родной страны от агрессоров или просто возможность грабить и наживаться.



Страна: Гонконг, Китай
Продолжительность: 02:05:40
Перевод: Профессиональный (многоголосый, закадровый) CP Digital + Профессиональный (двухголосый, закадровый) П.Гланц и И.Королёва

Файл
Формат: Matroska
Качество: BDRip 720p
Видео: 1280x544 at 24.000 fps, x264@L4.1, ~4100 kbps avg
Аудио#1: Russian: 48 kHz, AC3, 3/2 (L,C,R,l,r) + LFE ch, ~448 kbps avg |Многоголосый закадровый, CP Digital|
Аудио#2: Russian: 48 kHz, AC3, 3/2 (L,C,R,l,r) + LFE ch, ~448 kbps avg |Двухголосый закадровый, П.Гланц и И.Королёва|
Аудио#3: Chinese: 48 kHz, AC3, 3/2 (L,C,R,l,r) + LFE ch, ~448 kbps avg
Субтитры: Russian, English

***Сохранены оригинальные главы как на Blu-ray.
***Релиз - msltel.

Общее
Уникальный идентификатор : 190857661644604140158924546998720713834 (0x8F95D93BBBB625E3A992ABC0981ED46A)
Полное имя : Полководцы.2007.BDRip.720p by msltel.mkv
Формат : Matroska
Версия формата : Version 4 / Version 2
Размер файла : 4,88 Гбайт
Продолжительность : 2 ч. 5 м.
Общий поток : 5555 Кбит/сек
Название фильма : Rip by msltel
Дата кодирования : UTC 2017-03-22 10:26:25
Программа кодирования : mkvmerge v8.2.0 ('World of Adventure') 64bit
Библиотека кодирования : libebml v1.3.1 + libmatroska v1.4.2

Видео
Идентификатор : 1
Формат : AVC
Формат/Информация : Advanced Video Codec
Профиль формата : High@L4.1
Параметр CABAC формата : Да
Параметр ReFrames формата : 9 кадров
Идентификатор кодека : V_MPEG4/ISO/AVC
Продолжительность : 2 ч. 5 м.
Битрейт : 4100 Кбит/сек
Ширина : 1280 пикселей
Высота : 544 пикселя
Соотношение сторон : 2,35:1
Режим частоты кадров : Постоянный
Частота кадров : 24,000 кадра/сек
Цветовое пространство : YUV
Субдискретизация насыщенности : 4:2:0
Битовая глубина : 8 бит
Тип развёртки : Прогрессивная
Бит/(Пиксели*Кадры) : 0.245
Размер потока : 3,60 Гбайт (74%)
Библиотека кодирования : x264 core 146 r2538 121396c
Настройки программы : cabac=1 / ref=9 / deblock=1:-3:-2 / analyse=0x3:0x113 / me=umh / subme=11 / psy=1 / psy_rd=1.00:0.15 / mixed_ref=1 / me_range=32 / chroma_me=1 / trellis=2 / 8x8dct=1 / cqm=0 / deadzone=21,11 / fast_pskip=0 / chroma_qp_offset=-3 / threads=6 / lookahead_threads=1 / sliced_threads=0 / nr=0 / decimate=1 / interlaced=0 / bluray_compat=0 / constrained_intra=0 / bframes=12 / b_pyramid=2 / b_adapt=2 / b_bias=0 / direct=1 / weightb=1 / open_gop=0 / weightp=2 / keyint=230 / keyint_min=23 / scenecut=40 / intra_refresh=0 / rc_lookahead=40 / rc=crf / mbtree=0 / crf=20.0 / qcomp=0.60 / qpmin=0 / qpmax=69 / qpstep=4 / vbv_maxrate=62500 / vbv_bufsize=78125 / crf_max=0.0 / nal_hrd=none / filler=0 / ip_ratio=1.40 / pb_ratio=1.30 / aq=1:1.00
Язык : Chinese
Default : Да
Forced : Нет

Аудио #1
Идентификатор : 2
Формат : AC-3
Формат/Информация : Audio Coding 3
Расширение режима : CM (complete main)
Параметр Endianness формата : Big
Идентификатор кодека : A_AC3
Продолжительность : 2 ч. 5 м.
Вид битрейта : Постоянный
Битрейт : 448 Кбит/сек
Каналы : 6 каналов
Расположение каналов : Front: L C R, Side: L R, LFE
Частота : 48,0 КГц
Битовая глубина : 16 бит
Метод сжатия : С потерями
Размер потока : 403 Мбайт (8%)
Заголовок : MVO (CP Digital)
Язык : Russian
Default : Да
Forced : Нет

Аудио #2
Идентификатор : 3
Формат : AC-3
Формат/Информация : Audio Coding 3
Расширение режима : CM (complete main)
Параметр Endianness формата : Big
Идентификатор кодека : A_AC3
Продолжительность : 2 ч. 5 м.
Вид битрейта : Постоянный
Битрейт : 448 Кбит/сек
Каналы : 6 каналов
Расположение каналов : Front: L C R, Side: L R, LFE
Частота : 48,0 КГц
Битовая глубина : 16 бит
Метод сжатия : С потерями
Размер потока : 403 Мбайт (8%)
Заголовок : DVO (Пётр Гланц и Инна Королёва)
Язык : Russian
Default : Нет
Forced : Нет

Аудио #3
Идентификатор : 4
Формат : AC-3
Формат/Информация : Audio Coding 3
Расширение режима : CM (complete main)
Параметр Endianness формата : Big
Идентификатор кодека : A_AC3
Продолжительность : 2 ч. 5 м.
Вид битрейта : Постоянный
Битрейт : 448 Кбит/сек
Каналы : 6 каналов
Расположение каналов : Front: L C R, Side: L R, LFE
Частота : 48,0 КГц
Битовая глубина : 16 бит
Метод сжатия : С потерями
Размер потока : 403 Мбайт (8%)
Заголовок : original
Язык : Chinese
Default : Нет
Forced : Нет

Текст #1
Идентификатор : 5
Формат : UTF-8
Идентификатор кодека : S_TEXT/UTF8
Идентификатор кодека/Информация : UTF-8 Plain Text
Заголовок : русские
Язык : Russian
Default : Нет
Forced : Нет

Текст #2
Идентификатор : 6
Формат : UTF-8
Идентификатор кодека : S_TEXT/UTF8
Идентификатор кодека/Информация : UTF-8 Plain Text
Заголовок : английские
Язык : English
Default : Нет
Forced : Нет

Меню
00:00:00.000 : :Chapter 01
00:03:02.182 : :Chapter 02
00:04:46.019 : :Chapter 03
00:06:29.389 : :Chapter 04
00:07:43.463 : :Chapter 05
00:09:27.567 : :Chapter 06
00:10:59.992 : :Chapter 07
00:11:36.695 : :Chapter 08
00:12:41.427 : :Chapter 09
00:13:22.801 : :Chapter 10
00:14:32.204 : :Chapter 11
00:17:14.366 : :Chapter 12
00:18:41.787 : :Chapter 13
00:20:08.540 : :Chapter 14
00:21:00.259 : :Chapter 15
00:23:15.727 : :Chapter 16
00:23:48.093 : :Chapter 17
00:24:39.311 : :Chapter 18
00:25:34.199 : :Chapter 19
00:28:34.713 : :Chapter 20


_________________
Проголосуй за трекер Открытый торрент трекер - RUS-MEDIA.ORG

Проголосуй Открытый торрент трекер - RUS-MEDIA.ORG



реклама партнёра


Вернуться к началу
 Профиль Отправить личное сообщение  
 
   Похожие торренты   Автор   Торрент   Размер 
В этой теме нет новых непрочитанных сообщений. Братья Ньютон / The Newton Boys [Боевик, драма, криминал, вестерн, история, 1998] BDRip 720p, Dvo+Mvo+Sub

salma3

5 | 4

7.09 ГБ

В этой теме нет новых непрочитанных сообщений. Мидуэй / Midway [боевик, драма, военный, история, 1976] BDRip 720p, Mvo+Avo+Sub

salma3

145 | 35

10.43 ГБ

В этой теме нет новых непрочитанных сообщений. Вызов / Defiance [боевик, триллер, драма, военный, история, 2008] BDRip 720p , Dvo

salma3

76 | 46

11.99 ГБ

В этой теме нет новых непрочитанных сообщений. Операция «Хромит» / Operation Chromite [боевик, драма, военный, история, 2016] BDRip 720p, Mvo

salma3

232 | 42

5.42 ГБ

В этой теме нет новых непрочитанных сообщений. Свободный штат Джонса / Free State of Jones [Боевик, драма, военный, биография, история, 2016] BDRip 720p, Мvo

salma3

394 | 50

6.44 ГБ

В этой теме нет новых непрочитанных сообщений. Бог войны / God of War / Dang kou feng yun [боевик, история, военный, биография, 2017] BDRip 720p, Dvo

salma3

223 | 80

7.81 ГБ

В этой теме нет новых непрочитанных сообщений. Братья / Brothers [Драма, боевик, мелодрама, военный, 2016] WEB-DLRip-AVC, Dvo

salma3

120 | 48

1.47 ГБ


Начать новую тему Ответить на тему  [ 1 сообщение ] 




Для Мосгорсуда, Роскомнадзора и рекламодателей:: mosgorsud-torrent[собачка]yandex.ru