Торрент файл
скачать торрент магнет ссылка Добавлен: 21 мар 2017, 17:34
Размер: 8.06 ГБ
Сидеров: 71
Личеров: 31
Статус: (salma3)
Автор

СообщениеДобавлено: 21 мар 2017, 17:34 

Не в сети
Супермодератор
Аватара пользователя
Дата регистрации:
15 фев 2012, 16:44
Возраст: 28
Спасибо: 7060 / 2147
Сообщения: 59015
Год выхода: 1995
Жанр: комедия
Режиссер: Ник Касл

В ролях: Дэймон Уайанс, Майкл Айронсайд, Скотт Бигелоу, Йода Блэйр, Орландо Браун, Пейтон Чессон-Фол, Стивен Коулмэн, Марк Конуэй, Дэвид ДиХарт, Джошуа Тодд Дивели

О фильме:
Майору никак не присвоят звание полковника по одной причине - он умеет только убивать, ни на что другое он просто не способен. Его отправляют в отставку. Работа в полиции ему не подходит, и наш герой умирает от скуки в одном из номеров отеля.

Неожиданно он получает предложение стать инструктором по военной подготовке в военном учебном заведении. О том, как сложатся отношения «жестокосердного солдафона» с юными подопечными и одной весьма привлекательной преподавательницей рассказывает эта веселая комедия, полная забавных шуток и смешных ситуаций.



Страна: США
Студия: Universal Pictures, Wife 'n' Kids Inc.
Продолжительность: 01:36:59
Перевод: Профессиональный (многоголосый, закадровый) iTunes/Шестой канал по заказу СТС + Профессиональный (двухголосый, закадровый) НТВ+ + Профессиональный (многоголосый, закадровый) Премьер Видео Фильм/R5 + Авторский (одноголосый, закадровый) Ю.Живов + Авторский (одноголосый, закадровый) диктор CDV + Авторский (одноголосый, закадровый) А.Гаврилов + Профессиональный (многоголосый, закадровый) Новый канал

Файл
Формат: Matroska
Качество: BDRip 720p
Видео: 1280x692 at 23.976 fps, x264@L4.1, ~8978 kbps avg
Аудио#1: Russian: 48 kHz, AAC, 2/0 (L,R) ch, ~160 kbps avg |Многоголосый закадровый, iTunes/Шестой канал по заказу СТС|
Аудио#2: Russian: 48 kHz, AC3, 3/2 (L,C,R,l,r) + LFE ch, ~448 kbps avg |Двухголосый закадровый, НТВ+|
Аудио#3: Russian: 48 kHz, AC3, 2/0 (L,R) ch, ~192 kbps avg |Многоголосый закадровый, Премьер Видео Фильм/R5|
Аудио#4: Russian: 48 kHz, AC3, 2/0 (L,R) ch, ~640 kbps avg |Авторский, Ю.Живов|
Аудио#5: Russian: 48 kHz, AC3, 3/2 (L,C,R,l,r) + LFE ch, ~448 kbps avg |Авторский, диктор CDV|
Аудио#6: Russian: 48 kHz, AC3, 2/0 (L,R) ch, ~192 kbps avg |Авторский, А.Гаврилов|
Аудио#7: Ukrainian: 48 kHz, AC3, 2/0 (L,R) ch, ~192 kbps avg |Многоголосый закадровый, Новый канал|
Аудио#8: English: 48 kHz, AC3, 3/2 (L,C,R,l,r) + LFE ch, ~640 kbps avg
Субтитры: Russian (Forced, Full), German, English (Full, SDH)

***Сохранены оригинальные главы как на Blu-ray.
***Релиз - Kasparas77.

Песня, звучащая на фоне мечтаний Пэйна о собственном доме, семье и детях, является заглавной темой к сериалу «Шоу Донны Рид» (1958-1966). Примечательно, что кадета, возглавляющего школьный взвод, зовут так же, как и мужа главной героини Донны из сериала, — Алекс Стоун (Стивен Мартини/Карл Бетц).
Сцена в отеле была взята из фильма «Апокалипсис сегодня».
В фильме майор Пэйн (Дэймон Уайанс) рассказывает кадету Кевину «Тигрёнку» Данну (Орландо Браун) сказку про паровозик. В действительности, «Паровозик, который смог» — довольно известная американская детская сказка на тему оптимизма и трудолюбия. В версии Пэйна с ней схоже лишь начало, финал же оптимизма не внушает.
Байкер Бам Бам Бигелоу (Скотт Бигелоу), нанятый подопечными майора дабы разобраться с ненавистным инструктором, в реальной жизни — профессиональный рестлер.
В одной из сцен майор Пэйн говорит своим подопечным: «Всё, чего мы добились — это провал в попытке установить контакт» ("Now apparently, what we have here, is a failure to communicate!»). Это известная цитата из фильма «Хладнокровный Люк» (1967).
[*]Танцуя на вечеринке, майор несколько раз использует стиль Майкла Джексона.
Общее
Уникальный идентификатор : 174218663663830833661460481676273339748 (0x83114B4B96817E659934799A45AD4D64)
Полное имя : Major.Payne.1995.720p.BluRay.6xRus.Ukr.Eng.-VietHD.mkv
Формат : Matroska
Версия формата : Version 4 / Version 2
Размер файла : 8,06 Гбайт
Продолжительность : 1 ч. 37 м.
Общий поток : 11,9 Мбит/сек
Название фильма : Майор Пэйн / Major Payne (1995)
Дата кодирования : UTC 2017-03-17 15:50:51
Программа кодирования : mkvmerge v9.9.0 ('Pick Up') 64bit
Библиотека кодирования : libebml v1.3.4 + libmatroska v1.4.5
Attachment : Yes

Видео
Идентификатор : 1
Формат : AVC
Формат/Информация : Advanced Video Codec
Профиль формата : High@L4.1
Параметр CABAC формата : Да
Параметр ReFrames формата : 9 кадров
Идентификатор кодека : V_MPEG4/ISO/AVC
Продолжительность : 1 ч. 37 м.
Ширина : 1280 пикселей
Высота : 692 пикселя
Соотношение сторон : 1,85:1
Режим частоты кадров : Постоянный
Частота кадров : 23,976 кадра/сек
Цветовое пространство : YUV
Субдискретизация насыщенности : 4:2:0
Битовая глубина : 8 бит
Тип развёртки : Прогрессивная
Заголовок : Майор Пэйн / Major Payne (1995) BDRip 720p -=VietHD=-
Библиотека кодирования : x264 core 148 r2762.20 f1807b7 VietHD_Custom
Настройки программы : cabac=1 / ref=9 / deblock=1:-3:-3 / analyse=0x3:0x133 / me=umh / subme=10 / psy=1 / fade_compensate=0.00 / psy_rd=1.10:0.00 / mixed_ref=1 / me_range=24 / chroma_me=1 / trellis=2 / 8x8dct=1 / cqm=0 / deadzone=21,11 / fast_pskip=0 / chroma_qp_offset=-2 / threads=12 / lookahead_threads=2 / sliced_threads=0 / nr=0 / decimate=0 / interlaced=0 / bluray_compat=0 / constrained_intra=0 / fgo=0 / bframes=9 / b_pyramid=2 / b_adapt=2 / b_bias=0 / direct=3 / weightb=1 / open_gop=0 / weightp=2 / keyint=250 / keyint_min=23 / scenecut=40 / intra_refresh=0 / rc_lookahead=60 / rc=crf / mbtree=0 / crf=19.0000 / qcomp=0.65 / qpmin=0:0:0 / qpmax=69:69:69 / qpstep=4 / vbv_maxrate=62500 / vbv_bufsize=78125 / crf_max=0.0 / nal_hrd=none / filler=0 / ip_ratio=1.30 / pb_ratio=1.20 / aq=3:0.70 / aq-sensitivity=10.00 / aq-factor=1.00:1.00:1.00 / aq2=0 / aq3=0
Язык : English
Default : Да
Forced : Нет
Коэффициенты матрицы : BT.709

Аудио #1
Идентификатор : 2
Формат : AAC
Формат/Информация : Advanced Audio Codec
Профиль формата : LC
Идентификатор кодека : A_AAC
Продолжительность : 1 ч. 37 м.
Каналы : 2 канала
Расположение каналов : Front: L R
Частота : 48,0 КГц
Метод сжатия : С потерями
Заголовок : Многоголосый, iTunes (Шестой канал / СТС)
Язык : Russian
Default : Да
Forced : Нет

Аудио #2
Идентификатор : 3
Формат : AC-3
Формат/Информация : Audio Coding 3
Расширение режима : CM (complete main)
Параметр Endianness формата : Big
Идентификатор кодека : A_AC3
Продолжительность : 1 ч. 37 м.
Вид битрейта : Постоянный
Битрейт : 448 Кбит/сек
Каналы : 6 каналов
Расположение каналов : Front: L C R, Side: L R, LFE
Частота : 48,0 КГц
Битовая глубина : 16 бит
Метод сжатия : С потерями
Размер потока : 311 Мбайт (4%)
Заголовок : Двухголосый, НТВ+
Язык : Russian
Default : Нет
Forced : Нет

Аудио #3
Идентификатор : 4
Формат : AC-3
Формат/Информация : Audio Coding 3
Расширение режима : CM (complete main)
Параметр Endianness формата : Big
Идентификатор кодека : A_AC3
Продолжительность : 1 ч. 37 м.
Вид битрейта : Постоянный
Битрейт : 192 Кбит/сек
Каналы : 2 канала
Расположение каналов : Front: L R
Частота : 48,0 КГц
Битовая глубина : 16 бит
Метод сжатия : С потерями
Размер потока : 133 Мбайт (2%)
Заголовок : Двухголосый, Премьер Видео Фильм (R5)
Язык : Russian
Default : Нет
Forced : Нет

Аудио #4
Идентификатор : 5
Формат : AC-3
Формат/Информация : Audio Coding 3
Расширение режима : CM (complete main)
Параметр Endianness формата : Big
Идентификатор кодека : A_AC3
Продолжительность : 1 ч. 37 м.
Вид битрейта : Постоянный
Битрейт : 640 Кбит/сек
Каналы : 6 каналов
Расположение каналов : Front: L C R, Side: L R, LFE
Частота : 48,0 КГц
Битовая глубина : 16 бит
Метод сжатия : С потерями
Размер потока : 444 Мбайт (5%)
Заголовок : Одноголосый, Ю. Живов
Язык : Russian
Default : Нет
Forced : Нет

Аудио #5
Идентификатор : 6
Формат : AC-3
Формат/Информация : Audio Coding 3
Расширение режима : CM (complete main)
Параметр Endianness формата : Big
Идентификатор кодека : A_AC3
Продолжительность : 1 ч. 37 м.
Вид битрейта : Постоянный
Битрейт : 448 Кбит/сек
Каналы : 6 каналов
Расположение каналов : Front: L C R, Side: L R, LFE
Частота : 48,0 КГц
Битовая глубина : 16 бит
Метод сжатия : С потерями
Размер потока : 311 Мбайт (4%)
Заголовок : Одноголосый, диктор CDV
Язык : Russian
Default : Нет
Forced : Нет

Аудио #6
Идентификатор : 7
Формат : AC-3
Формат/Информация : Audio Coding 3
Расширение режима : CM (complete main)
Параметр Endianness формата : Big
Идентификатор кодека : A_AC3
Продолжительность : 1 ч. 37 м.
Вид битрейта : Постоянный
Битрейт : 192 Кбит/сек
Каналы : 2 канала
Расположение каналов : Front: L R
Частота : 48,0 КГц
Битовая глубина : 16 бит
Метод сжатия : С потерями
Размер потока : 133 Мбайт (2%)
Заголовок : Одноголосый, А.Гаврилов
Язык : Russian
Default : Нет
Forced : Нет

Аудио #7
Идентификатор : 8
Формат : AC-3
Формат/Информация : Audio Coding 3
Расширение режима : CM (complete main)
Параметр Endianness формата : Big
Идентификатор кодека : A_AC3
Продолжительность : 1 ч. 37 м.
Вид битрейта : Постоянный
Битрейт : 192 Кбит/сек
Каналы : 2 канала
Расположение каналов : Front: L R
Частота : 48,0 КГц
Битовая глубина : 16 бит
Метод сжатия : С потерями
Размер потока : 133 Мбайт (2%)
Заголовок : Многоголосый, Новый канал
Язык : Ukrainian
Default : Нет
Forced : Нет

Аудио #8
Идентификатор : 9
Формат : AC-3
Формат/Информация : Audio Coding 3
Расширение режима : CM (complete main)
Параметр Endianness формата : Big
Идентификатор кодека : A_AC3
Продолжительность : 1 ч. 37 м.
Вид битрейта : Постоянный
Битрейт : 640 Кбит/сек
Каналы : 6 каналов
Расположение каналов : Front: L C R, Side: L R, LFE
Частота : 48,0 КГц
Битовая глубина : 16 бит
Метод сжатия : С потерями
Размер потока : 444 Мбайт (5%)
Язык : English
Default : Нет
Forced : Нет

Текст #1
Идентификатор : 10
Формат : UTF-8
Идентификатор кодека : S_TEXT/UTF8
Идентификатор кодека/Информация : UTF-8 Plain Text
Заголовок : Forced
Язык : Russian
Default : Да
Forced : Нет

Текст #2
Идентификатор : 11
Формат : UTF-8
Идентификатор кодека : S_TEXT/UTF8
Идентификатор кодека/Информация : UTF-8 Plain Text
Язык : Russian
Default : Нет
Forced : Нет

Текст #3
Идентификатор : 12
Формат : UTF-8
Идентификатор кодека : S_TEXT/UTF8
Идентификатор кодека/Информация : UTF-8 Plain Text
Язык : German
Default : Нет
Forced : Нет

Текст #4
Идентификатор : 13
Формат : UTF-8
Идентификатор кодека : S_TEXT/UTF8
Идентификатор кодека/Информация : UTF-8 Plain Text
Язык : English
Default : Нет
Forced : Нет

Текст #5
Идентификатор : 14
Формат : UTF-8
Идентификатор кодека : S_TEXT/UTF8
Идентификатор кодека/Информация : UTF-8 Plain Text
Заголовок : SDH
Язык : English
Default : Нет
Forced : Нет

Меню
00:00:00.000 : en:Main Titles
00:04:28.979 : en:Hungry for Action
00:07:32.979 : en:Madison School
00:10:45.979 : en:The Green Boys
00:23:29.979 : en:The House of Payne
00:26:45.979 : en:A Killer Cupcake
00:33:16.979 : en:The Dress Parade
00:41:24.979 : en:The Giant Killer
00:48:32.979 : en:A Black Op
00:50:28.979 : en:A Bedtime Story
00:57:28.979 : en:Cuttin' a Rug
00:58:50.979 : en:A Wellington Beef
01:05:24.979 : en:Parent's Day
01:17:28.979 : en:Military Games
01:24:00.979 : en:Payne's Boys
01:27:17.979 : en:Bustin' a Move
01:31:01.979 : en:The Cadet's Pet
01:33:25.979 : en:End Titles


_________________
Проголосуй за трекер Открытый торрент трекер - RUS-MEDIA.ORG

Проголосуй Открытый торрент трекер - RUS-MEDIA.ORG


Вернуться к началу
 Профиль Отправить личное сообщение  
 
   Похожие торренты   Автор   Торрент   Размер 
В этой теме нет новых непрочитанных сообщений. Майор Пэйн / Major Payne [Комедия, приключения, 1995] BDRip 1080p, Mvo+Dvo+Avo+Sub

salma3

80 | 59

11.65 ГБ

В этой теме нет новых непрочитанных сообщений. Майор Пэйн / Major Payne [Комедия, приключения, 1995] Blu-Ray Remux 1080p, Mvo+Dvo+Avo+Sub

salma3

16 | 49

23.72 ГБ

В этой теме нет новых непрочитанных сообщений. Макс Пэйн / Max Payne [боевик, триллер, драма, 2008] BDRip 720p, Dub [Unrated]

salma3

0 | 0

5.76 ГБ

В этой теме нет новых непрочитанных сообщений. Макс Пэйн / Max Payne [боевик, триллер, драма, 2008] BDRemux 1080p, Dub [Unrated]

salma3

4 | 2

31.17 ГБ

В этой теме нет новых непрочитанных сообщений. Макс Пэйн / Max Payne [боевик, триллер, драма, 2008] WEB-DL 1080p, Dub [Open Matte] [Unrated]

salma3

0 | 0

13.95 ГБ

В этой теме нет новых непрочитанных сообщений. Макс Пэйн / Max Payne [Боевик, триллер, драма, 2008] WEB-DL 1080p, Dub [Open Matte] [Театральная версия]

salma3

0 | 0

10.13 ГБ

В этой теме нет новых непрочитанных сообщений. Max Payne 2: The Fall of Max Payne [v.1.1.102.0] [Action (Shooter), 3D, 3rd Person, 2003] [RePack]

salma3

176 | 45

1.07 ГБ


Начать новую тему Ответить на тему  [ 1 сообщение ] 




Для Мосгорсуда, Роскомнадзора и рекламодателей:: mosgorsud-torrent[собачка]yandex.ru
cron