Торрент файл
скачать торрент магнет ссылка Добавлен: 18 мар 2017, 21:30
Размер: 9.72 ГБ
Сидеров: 199
Личеров: 159
Статус: (salma3)
Автор

СообщениеДобавлено: 18 мар 2017, 21:30 

Не в сети
Супермодератор
Аватара пользователя
Дата регистрации:
15 фев 2012, 16:44
Возраст: 28
Спасибо: 7203 / 2147
Сообщения: 65070
Год выхода: 1993
Жанр: драма, комедия, криминал
Режиссер: Рамон Менендес

В ролях: Джон Кьюсак, Деби Мейзар, Майкл Мэдсен, Бенисио Дель Торо, Майкл Рапапорт, Мори Чайкин, Джеймс Гандольфини, Фионнула Флэнаган, Элизабет Бракко, Эшли Диджон, ...

О фильме: Миллион долларов на дороге не валяются. Но иногда достаточно просто оказаться в нужном месте в нужное время, чтобы сказочно разбогатеть. Безработному Джоуи выпадает один шанс из тысячи: он был рядом, когда из инкассаторской машины выпал мешок с миллионом долларов. Счастливчик сделал единственный разумный выбор — хватать и убегать.
Казалось, теперь все проблемы лишены, но легкие деньги обычно связаны с большими трудностями. На Джоуи объявлена настоящая охота: искатели вознаграждения и полиция гонятся за ним по пятам. И новоиспеченный Рокфеллер очень скоро начинает понимать, как тяжело быть миллионером…



Страна: США
Продолжительность: 01:40:12
Перевод: Профессиональный (двухголосый, закадровый) Видеосервис
- Авторский (одноголосый, закадровый) Горчаков Василий Овидиевич

Кодек: x264
Качество: BDRip 1080p
Видео: 1920x1080, 12000 kbps, 23,976 fps
Аудио #1: AC-3, 2 ch, 192 kbps (Rus) - DVO Видеосервис
Аудио #2: AC-3, 2 ch, 192 kbps (Rus) - AVO Горчаков Василий Овидиевич
Аудио #3: DTS, 2 ch, 1509 kbps (Eng)
Субтитры: английские

За исходник спасибо - Гость
x264 [info]: frame I:777 Avg QP:14.80 size:161734
x264 [info]: frame P:31861 Avg QP:17.10 size: 87491
x264 [info]: frame B:111509 Avg QP:19.08 size: 54694
x264 [info]: consecutive B-frames: 1.7% 6.0% 10.3% 14.9% 29.1% 4.3% 18.9% 1.0% 4.7% 8.8% 0.3%

Общее
Уникальный идентификатор : 200718967603525198704952883625754257950 (0x97011127A8EF4A8AAD74C4DFD11E6A1E)
Полное имя : Бесплатные деньги (Money for Nothing) 1993 BDRip 1080p.mkv
Формат : Matroska
Версия формата : Version 2
Размер файла : 9,72 Гбайт
Продолжительность : 1 ч. 40 м.
Общий поток : 13,9 Мбит/сек
Дата кодирования : UTC 2017-03-17 17:38:31
Программа кодирования : mkvmerge v4.0.0 ('The Stars were mine') сборка от Jun 6 2010 16:18:42
Библиотека кодирования : libebml v1.0.0 + libmatroska v1.0.0

Видео
Идентификатор : 1
Формат : AVC
Формат/Информация : Advanced Video Codec
Профиль формата : High@L4.1
Параметр CABAC формата : Да
Параметр ReFrames формата : 4 кадра
Идентификатор кодека : V_MPEG4/ISO/AVC
Продолжительность : 1 ч. 40 м.
Битрейт : 12,0 Мбит/сек
Ширина : 1920 пикселей
Высота : 1080 пикселей
Соотношение сторон : 16:9
Режим частоты кадров : Постоянный
Частота кадров : 23,976 (24000/1001) кадра/сек
Цветовое пространство : YUV
Субдискретизация насыщенности : 4:2:0
Битовая глубина : 8 бит
Тип развёртки : Прогрессивная
Бит/(Пиксели*Кадры) : 0.241
Размер потока : 8,20 Гбайт (84%)
Библиотека кодирования : x264 core 146 r2538 121396c
Настройки программы : cabac=1 / ref=4 / deblock=1:-3:-3 / analyse=0x3:0x133 / me=umh / subme=11 / psy=1 / psy_rd=1.00:0.00 / mixed_ref=1 / me_range=32 / chroma_me=1 / trellis=2 / 8x8dct=1 / cqm=0 / deadzone=21,11 / fast_pskip=0 / chroma_qp_offset=-2 / threads=12 / lookahead_threads=2 / sliced_threads=0 / nr=0 / decimate=0 / interlaced=0 / bluray_compat=0 / constrained_intra=0 / bframes=10 / b_pyramid=2 / b_adapt=2 / b_bias=0 / direct=3 / weightb=1 / open_gop=0 / weightp=2 / keyint=240 / keyint_min=23 / scenecut=40 / intra_refresh=0 / rc=2pass / mbtree=0 / bitrate=12000 / ratetol=1.0 / qcomp=0.60 / qpmin=0 / qpmax=69 / qpstep=4 / cplxblur=20.0 / qblur=0.5 / ip_ratio=1.40 / pb_ratio=1.30 / aq=1:0.80
Язык : English
Default : Нет
Forced : Нет

Аудио #1
Идентификатор : 2
Формат : AC-3
Формат/Информация : Audio Coding 3
Расширение режима : CM (complete main)
Параметр Endianness формата : Big
Идентификатор кодека : A_AC3
Продолжительность : 1 ч. 40 м.
Вид битрейта : Постоянный
Битрейт : 192 Кбит/сек
Каналы : 2 канала
Расположение каналов : Front: L R
Частота : 48,0 КГц
Частота кадров : 31,250 кадров/сек (1536 spf)
Метод сжатия : С потерями
Размер потока : 138 Мбайт (1%)
Заголовок : DVO Видеосервис
Язык : Russian
Default : Нет
Forced : Нет

Аудио #2
Идентификатор : 3
Формат : AC-3
Формат/Информация : Audio Coding 3
Расширение режима : CM (complete main)
Параметр Endianness формата : Big
Идентификатор кодека : A_AC3
Продолжительность : 1 ч. 40 м.
Вид битрейта : Постоянный
Битрейт : 192 Кбит/сек
Каналы : 2 канала
Расположение каналов : Front: L R
Частота : 48,0 КГц
Частота кадров : 31,250 кадров/сек (1536 spf)
Метод сжатия : С потерями
Размер потока : 138 Мбайт (1%)
Заголовок : AVO Горчаков Василий Овидиевич
Язык : Russian
Default : Нет
Forced : Нет

Аудио #3
Идентификатор : 4
Формат : DTS
Формат/Информация : Digital Theater Systems
Режим : 16
Параметр Endianness формата : Big
Идентификатор кодека : A_DTS
Продолжительность : 1 ч. 40 м.
Вид битрейта : Постоянный
Битрейт : 1509 Кбит/сек
Каналы : 2 канала
Расположение каналов : Front: L R
Частота : 48,0 КГц
Частота кадров : 93,750 кадра/сек (512 spf)
Битовая глубина : 24 бит
Метод сжатия : С потерями
Задержка видео : 22 мс.
Размер потока : 1,06 Гбайт (11%)
Язык : English
Default : Нет
Forced : Нет

Текст
Идентификатор : 5
Формат : UTF-8
Идентификатор кодека : S_TEXT/UTF8
Идентификатор кодека/Информация : UTF-8 Plain Text
Язык : English
Default : Нет
Forced : Нет


_________________
Проголосуй за трекер Открытый торрент трекер - RUS-MEDIA.ORG

Проголосуй Открытый торрент трекер - RUS-MEDIA.ORG


Вернуться к началу
 Профиль Отправить личное сообщение  
 
   Похожие торренты   Автор   Торрент   Размер 
В этой теме нет новых непрочитанных сообщений. Бесплатные деньги / Money for Nothing [драма, комедия, криминал, 1993] BDRip, Avo [Горчаков]

salma3

25 | 31

1.46 ГБ

В этой теме нет новых непрочитанных сообщений. Я заберу твои деньги / Blood Money [Триллер, драма, криминал, 2017] BDRip 1080p, Dub [iTunes]

salma3

10 | 8

8.29 ГБ

В этой теме нет новых непрочитанных сообщений. Шальные деньги / Mad Money [Комедия, криминал, 2008] BDRip-AVC, Mvo

salma3

154 | 44

1.46 ГБ

В этой теме нет новых непрочитанных сообщений. Хватай деньги и беги / Take the Money and Run [комедия, криминал, 1969] BDRip, Mvo

salma3

0 | 0

1.45 ГБ

В этой теме нет новых непрочитанных сообщений. Легкие деньги / Free Money [комедия, криминал, 1998] WEBRip 1080p, Mvo+Avo+Sub

salma3

46 | 15

7.93 ГБ

В этой теме нет новых непрочитанных сообщений. Лёгкие деньги / Easy Money [комедия, 1983] BDRip 1080p, Dvo+Avo+Sub

salma3

49 | 26

9.09 ГБ

В этой теме нет новых непрочитанных сообщений. Там, где деньги / Where the Money Is [драма, комедия, криминал, 2000] HDRip, Dvo

salma3

71 | 33

1.45 ГБ


Начать новую тему Ответить на тему  [ 1 сообщение ] 




Для Мосгорсуда, Роскомнадзора и рекламодателей:: mosgorsud-torrent[собачка]yandex.ru
cron