Торрент файл
скачать торрент магнет ссылка Добавлен: 18 мар 2017, 11:58
Размер: 4.4 ГБ
Сидеров: 0
Личеров: 13
Статус: (salma3)
Автор

СообщениеДобавлено: 18 мар 2017, 11:58 

Не в сети
Супермодератор
Аватара пользователя
Дата регистрации:
15 фев 2012, 16:44
Возраст: 29
Спасибо: 7380 / 2147
Сообщения: 76240
Год выхода: 1984
Жанр: драма, криминал
Режиссер: Отар Иоселиани

В ролях: Катя Рупе, Аликс де Монтегю, Франсуа Мишель, Жан-Пьер Бовиала, Паскаль Обье, Кристиана Байли, Бернар Эйзеншиц, Ганс Питер Клоос, Майте Наир, Матьё Амальрик

О фильме:
Картина XIX века и китайский фарфор XVIII века попадают в водоворот интриг, афер, законных и не очень манипуляций дюжины персонажей из самых разных слоев общества от воришек и проституток до звезд панк-рока и террористических группировок с неясными целями и задачами.



Страна: Франция, Италия, СССР
Продолжительность: 01:42:31
Перевод: Дублированный

Файл
Качество: BDRip 720p
Контейнер: MKV
Видео: H.264/AVC, 1202x720, 1.67:1, 23.976fps, ~5905 Kbps
Аудио: AC3, 2 ch, 192 Кбит/с

x264 info: frame I:739 Avg QP:13.78 size:118617
x264 info: frame P:32052 Avg QP:15.79 size: 56433
x264 info: frame B:114708 Avg QP:17.85 size: 23054
x264 info: consecutive B-frames: 1.5% 2.5% 8.1% 20.6% 21.6% 37.0% 5.5% 1.6% 0.8% 0.3% 0.1% 0.1% 0.3%
General
Unique ID : 35874997634278690910667281429255255897 (0x1AFD45F1BCBD10F6016CBC5E62B17759)
Complete name : F:FILMSФавориты луны.(1984).BLU-RAY.720p,[-=DoMiNo=-].mkv
Format : Matroska
Format version : Version 4 / Version 2
File size : 4.40 GiB
Duration : 1 h 42 min
Overall bit rate : 6 141 kb/s
Movie name : Фавориты луны
Deion : Картина XIX века и китайский фарфор XVIII века попадают в водоворот интриг, афер, законных и не очень манипуляций дюжины персонажей из самых разных слоев общества от воришек и проституток до звезд панк-рока и террористических группировок с неясными целями и задачами.
Writing application : XviD4PSP 7.0.366 DAILY
Writing library : Lavf57.41.100 / Lavf57.41.100
Attachments : poster.jpg
ACTORS : Катя Рупе, Аликс де Монтегю, Франсуа Мишель, Жан-Пьер Бовиала, Паскаль Обье, Кристиана Байли, Бернар Эйзеншиц, Ганс Питер Клоос, Майте Наир, Матьё Амальрик, Ласло Сабо, Янник Карпентье, Фанни Дапин, Мари Парра Аледо, Габриэлла Шир, René Vo Van Mihn, Гаспар Флори, Эмили Обри, Джуниор Джон Дэвид
COMPOSER : Николоз Зурабишвили
COUNTRY : Франция, Италия, СССР
DATE : 1984
DIRECTOR : Отар Иоселиани
ENCODING_INFO : BluRay > MKV 720p / H264 > X264 VBR-2P 5905kbps Произвольный / AC3 > COPY Безопасное
GENRE : драма, криминал
HD_VIDEO : 1
IMDB_RATING : 7.30
ITUNEXTC : ru-movie|16+|375|
MEDIA_TYPE : 9
ORIGINAL_ACTORS : Katja Rupé, Alix de Montaigu, François Michel, Jean-Pierre Beauviala, Pascal Aubier, Christiane Bailly, Bernard Eisenschitz, Hans Peter Cloos, Maïté Nahyr, Mathieu Amalric, László Szabó, Yannick Carpentier, Gabriella Sheer, Gaspard Flori, Emilie Aubry, Junior John David
ORIGINAL_TITLE : Les favoris de la lune
RATING : 7.390
WRITER : Отар Иоселиани, Жерар Браш
Video
ID : 1
Format : AVC
Format/Info : Advanced Video Codec
Format profile : High@L4.1
Format settings, CABAC : Yes
Format settings, ReFrames : 9 frames
Codec ID : V_MPEG4/ISO/AVC
Duration : 1 h 42 min
Bit rate : 5 905 kb/s
Width : 1 202 pixels
Height : 720 pixels
Display aspect ratio : 5:3
Frame rate mode : Constant
Frame rate : 23.976 (24000/1001) FPS
Color space : YUV
Chroma subsampling : 4:2:0
Bit depth : 8 bits
Scan type : Progressive
Bits/(Pixel*Frame) : 0.285
Stream size : 4.17 GiB (95%)
Title : BLU-RAY_720p_RYP_BY_-=DoMiNo=-
Writing library : x264 core 148 r2762M 90a61ec
Encoding settings : cabac=1 / ref=9 / deblock=1:-2:-2 / analyse=0x3:0x133 / me=umh / subme=11 / psy=1 / psy_rd=1.00:0.10 / mixed_ref=1 / me_range=48 / chroma_me=1 / trellis=2 / 8x8dct=1 / cqm=0 / deadzone=21,11 / fast_pskip=0 / chroma_qp_offset=-3 / threads=9 / lookahead_threads=2 / sliced_threads=0 / nr=0 / decimate=1 / interlaced=0 / bluray_compat=0 / constrained_intra=0 / bframes=12 / b_pyramid=2 / b_adapt=2 / b_bias=0 / direct=3 / weightb=1 / open_gop=0 / weightp=2 / keyint=230 / keyint_min=23 / scenecut=40 / intra_refresh=0 / rc=2pass / mbtree=0 / bitrate=5905 / ratetol=1.0 / qcomp=0.65 / qpmin=0 / qpmax=69 / qpstep=4 / cplxblur=20.0 / qblur=0.5 / ip_ratio=1.40 / pb_ratio=1.30 / aq=1:1.00
Default : Yes
Forced : No
Color range : Limited
Color primaries : BT.709
Transfer characteristics : BT.709
Matrix coefficients : BT.709
DURATION : 01:42:31.979000000
Audio
ID : 2
Format : AC-3
Format/Info : Audio Coding 3
Format settings, Endianness : Big
Codec ID : A_AC3
Duration : 1 h 42 min
Bit rate mode : Constant
Bit rate : 192 kb/s
Channel(s) : 2 channels
Channel positions : Front: L R
Sampling rate : 48.0 kHz
Frame rate : 31.250 FPS (1536 spf)
Bit depth : 16 bits
Compression mode : Lossy
Delay relative to video : -83 ms
Stream size : 141 MiB (3%)
Title : RUS_DUB
Language : Russian
Service kind : Complete Main
Default : Yes
Forced : No
DURATION : 01:42:31.936000000
Text #1
ID : 3
Format : PGS
Codec ID : S_HDMV/PGS
Codec ID/Info : Picture based subtitle format used on BDs/HD-DVDs
Language : Russian
Default : Yes
Forced : No
DURATION : 01:39:44.937000000
Text #2
ID : 4
Format : PGS
Codec ID : S_HDMV/PGS
Codec ID/Info : Picture based subtitle format used on BDs/HD-DVDs
Language : English
Default : No
Forced : No
DURATION : 01:42:25.514000000
Menu
00:00:00.000 : :Глава 1
00:10:10.943 : :Глава 2
00:20:30.604 : :Глава 3
00:28:44.264 : :Глава 4
00:39:47.760 : :Глава 5
00:49:31.677 : :Глава 6
01:00:05.768 : :Глава 7
01:10:23.676 : :Глава 8
01:20:56.393 : :Глава 9
01:30:56.576 : :Глава 10
01:39:44.019 : :Глава 11



_________________
Проголосуй за трекер Открытый торрент трекер - RUS-MEDIA.ORG

Проголосуй Открытый торрент трекер - RUS-MEDIA.ORG


Вернуться к началу
 Профиль Отправить личное сообщение  
 
   Похожие торренты   Автор   Торрент   Размер 
В этой теме нет новых непрочитанных сообщений. Ночи полнолуния / Les nuits de la pleine lune [драма, мелодрама, 1984] BDRip 720p, Avo

salma3

35 | 20

7.34 ГБ

В этой теме нет новых непрочитанных сообщений. Класс 1984 / Class of 1984 [боевик, триллер, драма, криминал, 1982] BDRip 720p, Avo

salma3

13 | 17

4.67 ГБ

В этой теме нет новых непрочитанных сообщений. Стукач / The Hit [триллер, драма, криминал, 1984] BDRip 720p, Mvo+Avo+Sub

salma3

151 | 37

5.05 ГБ

В этой теме нет новых непрочитанных сообщений. Класс 1984 / Class of 1984 [боевик, триллер, драма, криминал, 1982] BDRip 1080p, Avo

salma3

101 | 32

7.76 ГБ

В этой теме нет новых непрочитанных сообщений. Дикие улицы / Savage Streets [боевик, криминал, драма, 1984] BDRip 720p, Avo

salma3

8 | 4

6.37 ГБ

В этой теме нет новых непрочитанных сообщений. Клуб "Коттон" / The Cotton Club [драма, криминал, музыка, 1984] BDRip 720p, Dub

salma3

28 | 40

11.63 ГБ

В этой теме нет новых непрочитанных сообщений. Стукач / The Hit [триллер, драма, криминал, 1984] BDRip, Mvo

salma3

24 | 2

1.45 ГБ


Начать новую тему Ответить на тему  [ 1 сообщение ] 




Для Мосгорсуда, Роскомнадзора и рекламодателей:: mosgorsud-torrent[собачка]yandex.ru
cron