Торрент файл
скачать торрент магнет ссылка Добавлен: 13 мар 2017, 11:53
Размер: 11.65 ГБ
Сидеров: 80
Личеров: 59
Статус: (salma3)
Автор

СообщениеДобавлено: 13 мар 2017, 11:53 

В сети
Супермодератор
Аватара пользователя
Дата регистрации:
15 фев 2012, 16:44
Возраст: 28
Спасибо: 6822 / 2147
Сообщения: 48951
Год выпуска: 1995
Жанр: Комедия, приключения
Режиссер: Ник Касл

В ролях: Дэймон Уайанс ст., Майкл Айронсайд, Скотт Бигелоу, Йода Блэйр, Орландо Браун, Пейтон Чессон-Фол, Стивен Коулмэн, Марк Конуэй, Дэвид ДиХарт, Джошуа Тодд Дивели, Роберт Фараони мл., Майкл Габел, Альберт Холл, Уильям Хикки,

О фильме: Майору (Дэймон Уайанс) никак не присвоят звание полковника по одной причине - он умеет только убивать, ни на что другое он просто не способен. Его отправляют в отставку. Работа в полиции ему не подходит, и наш герой умирает от скуки в одном из номеров отеля. Неожиданно он получает предложение стать инструктором по военной подготовке в военном учебном заведении. О том, как сложатся отношения "жестокосердного солдафона" с юными подопечными и одной весьма привлекательной преподавательницей рассказывает эта веселая комедия, полная забавных шуток и смешных ситуаций.



Выпущено: США, Universal Pictures, Wife 'n' Kids Inc.
Продолжительность: 01:36:58
Перевод: Профессиональный многоголосый, профессиональный двухголосый, профессиональный одноголосый, авторский

Файл
Качество: BDRip (1080p)
Видео: MPEG-4 AVC, 14.7 Мбит/с, 1920x1038, 23.976 кадр/с
Аудио #1: Русский (AC3, 6 ch, 448 Кбит/с) - Профессиональный двухголосый (НТВ+)
Аудио #2: Русский (AC3, 2 ch, 192 Кбит/с) - Профессиональный многоголосый (R5)
Аудио #3: Русский (AC3, 2 ch, 160 Кбит/с) - Профессиональный многоголосый (6 канал)
Аудио #4: Русский (AC3, 6 ch, 448 Кбит/с) - Профессиональный одноголосый (Диктор CDV)
Аудио #5: Русский (AC3, 6 ch, 640 Кбит/с) - Авторский (Живов)
Аудио #6: Русский (AC3, 2 ch, 192 Кбит/с) - Авторский (Гаврилов)
Аудио #7: Английский (AC3, 6 ch, 448 Кбит/с) - Оригинал
Субтитры: Русские, английские

Формат : Matroska
Версия формата : Version 2
Размер файла : 11,6 Гбайт
Продолжительность : 1 ч. 36 м.
Общий поток : 17,2 Мбит/сек
Дата кодирования : UTC 2017-03-12 23:06:48
Программа кодирования : mkvmerge v6.5.0 ('Isn't she lovely') built on Oct 20 2013 12:50:05
Библиотека кодирования : libebml v1.3.0 + libmatroska v1.4.1
Обложка : Yes
Attachments : cover.jpg

Видео
Идентификатор : 1
Формат : AVC
Формат/Информация : Advanced Video Codec
Профиль формата : High@L4.1
Параметр CABAC формата : Да
Параметр ReFrames формата : 4 кадра
Идентификатор кодека : V_MPEG4/ISO/AVC
Продолжительность : 1 ч. 36 м.
Битрейт : 14,7 Мбит/сек
Ширина : 1920 пикселей
Высота : 1038 пикселей
Соотношение сторон : 1,85:1
Режим частоты кадров : Постоянный
Частота кадров : 23,976 (24000/1001) кадра/сек
Цветовое пространство : YUV
Субдискретизация насыщенности : 4:2:0
Битовая глубина : 8 бит
Тип развёртки : Прогрессивная
Бит/(Пиксели*Кадры) : 0.307
Размер потока : 9,70 Гбайт (83%)
Заголовок : ~V~
Библиотека кодирования : x264 core 150 r2773+45 df9a66c 7mod [8-bit@all X86_64]
Настройки программы : cabac=1 / ref=4 / deblock=1:-3:-3 / analyse=0x3:0x133 / me=umh / subme=11 / psy=1 / fade_compensate=0.00 / psy_rd=1.00:0.00 / mixed_ref=1 / me_range=32 / chroma_me=1 / trellis=2 / 8x8dct=1 / cqm=0 / deadzone=21,11 / fast_pskip=0 / chroma_qp_offset=-2 / threads=12 / lookahead_threads=1 / sliced_threads=0 / nr=0 / decimate=0 / interlaced=0 / bluray_compat=0 / constrained_intra=0 / fgo=0 / bframes=9 / b_pyramid=2 / b_adapt=2 / b_bias=0 / direct=3 / weightb=1 / open_gop=0 / weightp=2 / keyint=240 / keyint_min=23 / scenecut=40 / intra_refresh=0 / rc=2pass / mbtree=0 / bitrate=14664 / ratetol=1.0 / qcomp=0.60 / qpmin=0:0:0 / qpmax=69:69:69 / qpstep=4 / cplxblur=20.0 / qblur=0.5 / ip_ratio=1.28 / pb_ratio=1.24 / aq=4:1.00 / aq-sensitivity=10.00 / aq-factor=1.00:1.00:1.00 / aq2=0 / aq3=0
Язык : English
Default : Да
Forced : Нет

Аудио #1
Идентификатор : 2
Формат : AC-3
Формат/Информация : Audio Coding 3
Расширение режима : CM (complete main)
Параметр Endianness формата : Big
Идентификатор кодека : A_AC3
Продолжительность : 1 ч. 36 м.
Вид битрейта : Постоянный
Битрейт : 448 Кбит/сек
Каналы : 6 каналов
Расположение каналов : Front: L C R, Side: L R, LFE
Частота : 48,0 КГц
Частота кадров : 31,250 кадров/сек (1536 spf)
Метод сжатия : С потерями
Размер потока : 311 Мбайт (3%)
Заголовок : DVO[НТВ+]
Язык : Russian
Default : Да
Forced : Да

Аудио #2
Идентификатор : 3
Формат : AC-3
Формат/Информация : Audio Coding 3
Расширение режима : CM (complete main)
Параметр Endianness формата : Big
Идентификатор кодека : A_AC3
Продолжительность : 1 ч. 36 м.
Вид битрейта : Постоянный
Битрейт : 192 Кбит/сек
Каналы : 2 канала
Расположение каналов : Front: L R
Частота : 48,0 КГц
Частота кадров : 31,250 кадров/сек (1536 spf)
Метод сжатия : С потерями
Размер потока : 133 Мбайт (1%)
Заголовок : MVO[R5]
Язык : Russian
Default : Нет
Forced : Нет

Аудио #3
Идентификатор : 4
Формат : AC-3
Формат/Информация : Audio Coding 3
Расширение режима : CM (complete main)
Параметр Endianness формата : Big
Идентификатор кодека : A_AC3
Продолжительность : 1 ч. 36 м.
Вид битрейта : Постоянный
Битрейт : 160 Кбит/сек
Каналы : 2 канала
Расположение каналов : Front: L R
Частота : 48,0 КГц
Частота кадров : 31,250 кадров/сек (1536 spf)
Метод сжатия : С потерями
Размер потока : 111 Мбайт (1%)
Заголовок : MVO[6 канал]
Язык : Russian
Default : Нет
Forced : Нет

Аудио #4
Идентификатор : 5
Формат : AC-3
Формат/Информация : Audio Coding 3
Расширение режима : CM (complete main)
Параметр Endianness формата : Big
Идентификатор кодека : A_AC3
Продолжительность : 1 ч. 36 м.
Вид битрейта : Постоянный
Битрейт : 448 Кбит/сек
Каналы : 6 каналов
Расположение каналов : Front: L C R, Side: L R, LFE
Частота : 48,0 КГц
Частота кадров : 31,250 кадров/сек (1536 spf)
Метод сжатия : С потерями
Размер потока : 311 Мбайт (3%)
Заголовок : VO[диктор CDV]
Язык : Russian
Default : Нет
Forced : Нет

Аудио #5
Идентификатор : 6
Формат : AC-3
Формат/Информация : Audio Coding 3
Расширение режима : CM (complete main)
Параметр Endianness формата : Big
Идентификатор кодека : A_AC3
Продолжительность : 1 ч. 36 м.
Вид битрейта : Постоянный
Битрейт : 640 Кбит/сек
Каналы : 6 каналов
Расположение каналов : Front: L C R, Side: L R, LFE
Частота : 48,0 КГц
Частота кадров : 31,250 кадров/сек (1536 spf)
Метод сжатия : С потерями
Размер потока : 444 Мбайт (4%)
Заголовок : AVO[Ю. Живов]
Язык : Russian
Default : Нет
Forced : Нет

Аудио #6
Идентификатор : 7
Формат : AC-3
Формат/Информация : Audio Coding 3
Расширение режима : CM (complete main)
Параметр Endianness формата : Big
Идентификатор кодека : A_AC3
Продолжительность : 1 ч. 36 м.
Вид битрейта : Постоянный
Битрейт : 192 Кбит/сек
Каналы : 2 канала
Расположение каналов : Front: L R
Частота : 48,0 КГц
Частота кадров : 31,250 кадров/сек (1536 spf)
Метод сжатия : С потерями
Размер потока : 133 Мбайт (1%)
Заголовок : AVO[А.Гаврилов]
Язык : Russian
Default : Нет
Forced : Нет

Аудио #7
Идентификатор : 8
Формат : AC-3
Формат/Информация : Audio Coding 3
Расширение режима : CM (complete main)
Параметр Endianness формата : Big
Идентификатор кодека : A_AC3
Продолжительность : 1 ч. 36 м.
Вид битрейта : Постоянный
Битрейт : 448 Кбит/сек
Каналы : 6 каналов
Расположение каналов : Front: L C R, Side: L R, LFE
Частота : 48,0 КГц
Частота кадров : 31,250 кадров/сек (1536 spf)
Метод сжатия : С потерями
Размер потока : 311 Мбайт (3%)
Язык : English
Default : Нет
Forced : Нет

Текст #1
Идентификатор : 9
Формат : UTF-8
Идентификатор кодека : S_TEXT/UTF8
Идентификатор кодека/Информация : UTF-8 Plain Text
Заголовок : Full
Язык : Russian
Default : Нет
Forced : Нет

Текст #2
Идентификатор : 10
Формат : UTF-8
Идентификатор кодека : S_TEXT/UTF8
Идентификатор кодека/Информация : UTF-8 Plain Text
Заголовок : Forced
Язык : Russian
Default : Да
Forced : Да

Текст #3
Идентификатор : 11
Формат : UTF-8
Идентификатор кодека : S_TEXT/UTF8
Идентификатор кодека/Информация : UTF-8 Plain Text
Заголовок : Full
Язык : English
Default : Нет
Forced : Нет

Меню
00:00:00.000 : en:Main Titles
00:04:28.979 : en:Hungry for Action
00:07:32.979 : en:Madison School
00:10:45.979 : en:The Green Boys
00:23:29.979 : en:The House of Payne
00:26:45.979 : en:A Killer Cupcake
00:33:16.979 : en:The Dress Parade
00:41:24.979 : en:The Giant Killer
00:48:32.979 : en:A Black Op
00:50:28.979 : en:A Bedtime Story
00:57:28.979 : en:Cuttin' a Rug
00:58:50.979 : en:A Wellington Beef
01:05:24.979 : en:Parent's Day
01:17:28.979 : en:Military Games
01:24:00.979 : en:Payne's Boys
01:27:17.979 : en:Bustin' a Move
01:31:01.979 : en:The Cadet's Pet
01:33:25.979 : en:End Titles

Релиз от:


_________________
Проголосуй за трекер Открытый торрент трекер - RUS-MEDIA.ORG

Проголосуй Открытый торрент трекер - RUS-MEDIA.ORG



реклама партнёра


Вернуться к началу
 Профиль Отправить личное сообщение  
 
   Похожие торренты   Автор   Торрент   Размер 
В этой теме нет новых непрочитанных сообщений. Майор Пэйн / Major Payne [Комедия, приключения, 1995] Blu-Ray Remux 1080p, Mvo+Dvo+Avo+Sub

salma3

16 | 49

23.72 ГБ

В этой теме нет новых непрочитанных сообщений. Майор Пэйн / Major Payne [комедия, 1995] BDRip 720p, Mvo+Dvo+Avo+Sub

salma3

78 | 31

8.06 ГБ

В этой теме нет новых непрочитанных сообщений. Макс Пэйн / Max Payne [боевик, триллер, драма, 2008] BDRemux 1080p, Dub [Unrated]

salma3

4 | 2

31.17 ГБ

В этой теме нет новых непрочитанных сообщений. Макс Пэйн / Max Payne [боевик, триллер, драма, 2008] WEB-DL 1080p, Dub [Open Matte] [Unrated]

salma3

0 | 0

13.95 ГБ

В этой теме нет новых непрочитанных сообщений. Макс Пэйн / Max Payne [боевик, триллер, драма, 2008] BDRip 720p, Dub [Unrated]

salma3

0 | 0

5.76 ГБ

В этой теме нет новых непрочитанных сообщений. Макс Пэйн / Max Payne [Боевик, триллер, драма, 2008] WEB-DL 1080p, Dub [Open Matte] [Театральная версия]

salma3

0 | 0

10.13 ГБ

В этой теме нет новых непрочитанных сообщений. Первый рыцарь / First Knight [Боевик, триллер, мелодрама, приключения, 1995] BDRip 1080p, Dub+4Mvo+Dvo+Avo+Sub

salma3

17 | 41

16.02 ГБ


Начать новую тему Ответить на тему  [ 1 сообщение ] 




Для Мосгорсуда, Роскомнадзора и рекламодателей:: mosgorsud-torrent[собачка]yandex.ru