Торрент файл
скачать торрент магнет ссылка Добавлен: 13 мар 2017, 11:36
Размер: 23.72 ГБ
Сидеров: 16
Личеров: 49
Статус: (salma3)
Автор

СообщениеДобавлено: 13 мар 2017, 11:36 

Не в сети
Супермодератор
Аватара пользователя
Дата регистрации:
15 фев 2012, 16:44
Возраст: 28
Спасибо: 7204 / 2147
Сообщения: 65240
Год выхода: 1995
Жанр: Комедия, приключения
Режиссер: Ник Касл

В ролях: Дэймон Уайанс ст., Майкл Айронсайд, Скотт Бигелоу, Йода Блэйр, Орландо Браун, Пейтон Чессон-Фол, Стивен Коулмэн, Марк Конуэй, Дэвид ДиХарт, Джошуа Тодд Дивели, Роберт Фараони мл., Майкл Габел,

О фильме:
Майору никак не присвоят звание полковника по одной причине — он умеет только убивать, ни на что другое он просто не способен. Его отправляют в отставку. Работа в полиции ему не подходит, и наш герой умирает от скуки в одном из номеров отеля. Неожиданно он получает предложение стать инструктором по военной подготовке в военном учебном заведении. О том, как сложатся отношения «жестокосердного солдафона» с юными подопечными и одной весьма привлекательной преподавательницей рассказывает эта веселая комедия, полная забавных шуток и смешных ситуаций.



Страна: США
Студия: Universal Pictures, Wife 'n' Kids Inc.
Продолжительность: 01:36:59
Перевод: Профессиональный многоголосый, профессиональный двухголосый, профессиональный одноголосый, авторский

Файл
Качество: Blu-Ray Remux 1080p
Видео: 1920x1080 (16:9), 23.976 fps, MPEG-4 AVC Video ~ 27.9 Mbps avg, 0.561 bit/pixel
Аудио #1: Русский (AC3, 6 ch, 448 Кбит/с) - Профессиональный двухголосый (НТВ+)
Аудио #2: Русский (AC3, 2 ch, 192 Кбит/с) - Профессиональный многоголосый (R5)
Аудио #3: Русский (AC3, 2 ch, 192 Кбит/с) - Авторский одноголосый (Гаврилов)
Аудио #4: Русский (AAC, 2 ch, 160 Кбит/с) - Профессиональный многоголосый (6 канал)
Аудио #5: Русский (AC3, 6 ch, 640 Кбит/с) - Авторский одноголосый (Живов)
Аудио #6: Русский (AC3, 6 ch, 448 Кбит/с) - Профессиональный одноголосый (Диктор CDV)
Аудио #7: Украинский (AC3, 2 ch, 192 Кбит/с) - Профессиональный многоголосый (Новый канал)
Аудио #8: Английский (E-AC3, 6 ch, 448 Кбит/с) - Оригинал
Аудио #9: Английский (DTS HD-MA, 6 ch, 4206 Кбит/с) - Оригинал
Субтитры: Русские, английские

Семпл

Общее
Уникальный идентификатор : 203308297115160340363940533221245430355 (0x98F3C0F4D1BF479789B5ABE26715AA53)
Полное имя : Major.Payne.1995.1080p.Blu.ray.REMUX.AVC.mkv
Формат : Matroska
Версия формата : Version 4 / Version 2
Размер файла : 23,7 Гбайт
Продолжительность : 1 ч. 37 м.
Режим общего битрейта : Переменный
Общий поток : 35,0 Мбит/сек
Название фильма : Release by spartanec163
Дата кодирования : UTC 2017-03-13 05:42:01
Программа кодирования : mkvmerge v9.7.1 ('Pandemonium') 64bit
Библиотека кодирования : libebml v1.3.4 + libmatroska v1.4.5
DURATION : 01:33:31.633000000
NUMBER_OF_FRAMES : 1331
NUMBER_OF_BYTES : 39851
_STATISTICS_WRITING_APP : mkvmerge v9.7.1 ('Pandemonium') 64bit
_STATISTICS_WRITING_DATE_UTC : 2017-03-13 05:42:01
_STATISTICS_TAGS : BPS DURATION NUMBER_OF_FRAMES NUMBER_OF_BYTES

Видео
Идентификатор : 1
Формат : AVC
Формат/Информация : Advanced Video Codec
Профиль формата : High@L4.1
Параметр CABAC формата : Да
Параметр ReFrames формата : 2 кадра
Идентификатор кодека : V_MPEG4/ISO/AVC
Продолжительность : 1 ч. 37 м.
Вид битрейта : Переменный
Ширина : 1920 пикселей
Высота : 1080 пикселей
Соотношение сторон : 16:9
Режим частоты кадров : Постоянный
Частота кадров : 23,976 кадра/сек
Цветовое пространство : YUV
Субдискретизация насыщенности : 4:2:0
Битовая глубина : 8 бит
Тип развёртки : Прогрессивная
Default : Да
Forced : Нет

Аудио #1
Идентификатор : 2
Формат : AC-3
Формат/Информация : Audio Coding 3
Расширение режима : CM (complete main)
Параметр Endianness формата : Big
Идентификатор кодека : A_AC3
Продолжительность : 1 ч. 37 м.
Вид битрейта : Постоянный
Битрейт : 448 Кбит/сек
Каналы : 6 каналов
Расположение каналов : Front: L C R, Side: L R, LFE
Частота : 48,0 КГц
Метод сжатия : С потерями
Размер потока : 311 Мбайт (1%)
Заголовок : AC3 5.1 448Kbps (Профессиональный, многоголосый - НТВ+)
Язык : Russian
Default : Да
Forced : Нет

Аудио #2
Идентификатор : 3
Формат : AC-3
Формат/Информация : Audio Coding 3
Расширение режима : CM (complete main)
Параметр Endianness формата : Big
Идентификатор кодека : A_AC3
Продолжительность : 1 ч. 37 м.
Вид битрейта : Постоянный
Битрейт : 192 Кбит/сек
Каналы : 2 канала
Расположение каналов : Front: L R
Частота : 48,0 КГц
Метод сжатия : С потерями
Размер потока : 133 Мбайт (1%)
Заголовок : AC3 2.0 192Kbps (Профессиональный, многоголосый - R5)
Язык : Russian
Default : Нет
Forced : Нет

Аудио #3
Идентификатор : 4
Формат : AC-3
Формат/Информация : Audio Coding 3
Расширение режима : CM (complete main)
Параметр Endianness формата : Big
Идентификатор кодека : A_AC3
Продолжительность : 1 ч. 37 м.
Вид битрейта : Постоянный
Битрейт : 192 Кбит/сек
Каналы : 2 канала
Расположение каналов : Front: L R
Частота : 48,0 КГц
Метод сжатия : С потерями
Размер потока : 133 Мбайт (1%)
Заголовок : AC3 2.0 192Kbps (Авторский, одноголосый - А.Гаврилов)
Язык : Russian
Default : Нет
Forced : Нет

Аудио #4
Идентификатор : 5
Формат : AAC
Формат/Информация : Advanced Audio Codec
Профиль формата : LC
Идентификатор кодека : A_AAC
Продолжительность : 1 ч. 37 м.
Каналы : 2 канала
Расположение каналов : Front: L R
Частота : 48,0 КГц
Метод сжатия : С потерями
Заголовок : AAC 2.0 160Kbps (Профессиональный, многоголосый - iTunes, Шестой канал по заказу СТС)
Язык : Russian
Default : Нет
Forced : Нет

Аудио #5
Идентификатор : 6
Формат : AC-3
Формат/Информация : Audio Coding 3
Расширение режима : CM (complete main)
Параметр Endianness формата : Big
Идентификатор кодека : A_AC3
Продолжительность : 1 ч. 37 м.
Вид битрейта : Постоянный
Битрейт : 640 Кбит/сек
Каналы : 6 каналов
Расположение каналов : Front: L C R, Side: L R, LFE
Частота : 48,0 КГц
Метод сжатия : С потерями
Размер потока : 444 Мбайт (2%)
Заголовок : AC3 5.1 640Kbps (Авторский, одноголосый - Ю. Живов)
Язык : Russian
Default : Нет
Forced : Нет

Аудио #6
Идентификатор : 7
Формат : AC-3
Формат/Информация : Audio Coding 3
Расширение режима : CM (complete main)
Параметр Endianness формата : Big
Идентификатор кодека : A_AC3
Продолжительность : 1 ч. 37 м.
Вид битрейта : Постоянный
Битрейт : 448 Кбит/сек
Каналы : 6 каналов
Расположение каналов : Front: L C R, Side: L R, LFE
Частота : 48,0 КГц
Метод сжатия : С потерями
Размер потока : 311 Мбайт (1%)
Заголовок : AC3 5.1 448Kbps (Профессиональный, одноголосый - диктор CDV)
Язык : Russian
Default : Нет
Forced : Нет

Аудио #7
Идентификатор : 8
Формат : AC-3
Формат/Информация : Audio Coding 3
Расширение режима : CM (complete main)
Параметр Endianness формата : Big
Идентификатор кодека : A_AC3
Продолжительность : 1 ч. 37 м.
Вид битрейта : Постоянный
Битрейт : 192 Кбит/сек
Каналы : 2 канала
Расположение каналов : Front: L R
Частота : 48,0 КГц
Метод сжатия : С потерями
Размер потока : 133 Мбайт (1%)
Заголовок : AC3 2.0 192Kbps (Профессиональный, многоголосый - Новый канал)
Язык : Ukrainian
Default : Нет
Forced : Нет

Аудио #8
Идентификатор : 9
Формат : E-AC-3
Формат/Информация : Audio Coding 3
Параметр Endianness формата : Big
Идентификатор кодека : A_EAC3
Продолжительность : 1 ч. 37 м.
Вид битрейта : Постоянный
Битрейт : 640 Кбит/сек
Каналы : 6 каналов
Расположение каналов : Front: L C R, Side: L R, LFE
Частота : 48,0 КГц
Метод сжатия : С потерями
Размер потока : 444 Мбайт (2%)
Заголовок : E-AC3 5.1 640Kbps (Оригинал)
Язык : English
Default : Нет
Forced : Нет

Аудио #9
Идентификатор : 11
Формат : DTS
Формат/Информация : Digital Theater Systems
Профиль формата : MA / Core
Режим : 16
Параметр Endianness формата : Big
Идентификатор кодека : A_DTS
Продолжительность : 1 ч. 37 м.
Вид битрейта : Переменный
Битрейт : Неизвестно / 1509 Кбит/сек
Каналы : 6 каналов
Расположение каналов : Front: L C R, Side: L R, LFE
Частота : 48,0 КГц
Битовая глубина : 24 бит
Метод сжатия : Без потерь / Lossy
Язык : English
Default : Нет
Forced : Нет

Текст #1
Идентификатор : 10
Формат : UTF-8
Идентификатор кодека : S_TEXT/UTF8
Идентификатор кодека/Информация : UTF-8 Plain Text
Заголовок : Надписи, iTunes
Язык : Russian
Default : Да
Forced : Нет

Текст #2
Идентификатор : 12
Формат : UTF-8
Идентификатор кодека : S_TEXT/UTF8
Идентификатор кодека/Информация : UTF-8 Plain Text
Заголовок : Полные
Язык : Russian
Default : Нет
Forced : Нет

Текст #3
Идентификатор : 13
Формат : UTF-8
Идентификатор кодека : S_TEXT/UTF8
Идентификатор кодека/Информация : UTF-8 Plain Text
Заголовок : Полные, iTunes
Язык : English
Default : Нет
Forced : Нет

Текст #4
Идентификатор : 14
Формат : UTF-8
Идентификатор кодека : S_TEXT/UTF8
Идентификатор кодека/Информация : UTF-8 Plain Text
Заголовок : Полные, SDH, iTunes
Язык : English
Default : Нет
Forced : Нет

Меню
00:00:00.000 : en:Main Titles
00:04:28.979 : en:Hungry for Action
00:07:32.979 : en:Madison School
00:10:45.979 : en:The Green Boys
00:23:29.979 : en:The House of Payne
00:26:45.979 : en:A Killer Cupcake
00:33:16.979 : en:The Dress Parade
00:41:24.979 : en:The Giant Killer
00:48:32.979 : en:A Black Op
00:50:28.979 : en:A Bedtime Story
00:57:28.979 : en:Cuttin' a Rug
00:58:50.979 : en:A Wellington Beef
01:05:24.979 : en:Parent's Day
01:17:28.979 : en:Military Games
01:24:00.979 : en:Payne's Boys
01:27:17.979 : en:Bustin' a Move
01:31:01.979 : en:The Cadet's Pet
01:33:25.979 : en:End Titles



_________________
Проголосуй за трекер Открытый торрент трекер - RUS-MEDIA.ORG

Проголосуй Открытый торрент трекер - RUS-MEDIA.ORG


Вернуться к началу
 Профиль Отправить личное сообщение  
 
   Похожие торренты   Автор   Торрент   Размер 
В этой теме нет новых непрочитанных сообщений. Майор Пэйн / Major Payne [Комедия, приключения, 1995] BDRip 1080p, Mvo+Dvo+Avo+Sub

salma3

80 | 59

11.65 ГБ

В этой теме нет новых непрочитанных сообщений. Майор Пэйн / Major Payne [комедия, 1995] BDRip 720p, Mvo+Dvo+Avo+Sub

salma3

90 | 31

8.06 ГБ

В этой теме нет новых непрочитанных сообщений. Макс Пэйн / Max Payne [боевик, триллер, драма, 2008] BDRemux 1080p, Dub [Unrated]

salma3

4 | 2

31.17 ГБ

В этой теме нет новых непрочитанных сообщений. Макс Пэйн / Max Payne [боевик, триллер, драма, 2008] WEB-DL 1080p, Dub [Open Matte] [Unrated]

salma3

0 | 0

13.95 ГБ

В этой теме нет новых непрочитанных сообщений. Макс Пэйн / Max Payne [Боевик, триллер, драма, 2008] WEB-DL 1080p, Dub [Open Matte] [Театральная версия]

salma3

0 | 0

10.13 ГБ

В этой теме нет новых непрочитанных сообщений. Макс Пэйн / Max Payne [боевик, триллер, драма, 2008] BDRip 720p, Dub [Unrated]

salma3

0 | 0

5.76 ГБ

В этой теме нет новых непрочитанных сообщений. Пэн: Путешествие в Нетландию / Pan (Джо Райт) [2015, Фэнтези, комедия, приключения, семейный , BD-Remux 1080p] [DD5.1] [Dub Rus , Ukr , Eng]+[Sub Rus , Ukr , Eng]

Враг Нароода

10 | 1

20.01 ГБ


Начать новую тему Ответить на тему  [ 1 сообщение ] 




Для Мосгорсуда, Роскомнадзора и рекламодателей:: mosgorsud-torrent[собачка]yandex.ru
cron