Торрент файл
скачать торрент магнет ссылка Добавлен: 12 мар 2017, 22:23
Размер: 4.14 ГБ
Сидеров: 42
Личеров: 9
Статус: (salma3)
Автор

СообщениеДобавлено: 12 мар 2017, 22:23 

В сети
Супермодератор
Аватара пользователя
Дата регистрации:
15 фев 2012, 16:44
Возраст: 28
Спасибо: 6644 / 2146
Сообщения: 45965
Режиссер: Джо Карнахан
Жанр: боевик, триллер, драма, криминал

Год выпуска: 2006

В ролях: Райан Рейнольдс, Энди Гарсиа, Джереми Пивен, Рэй Лиотта, Алишиа Кис, Тараджи П. Хенсон, Коммон, Крис Пайн, Джоэл Эдгертон, Нестор Карбонелл

Описание: Бывший протеже гангстерского босса, успешный сценичный комик, решает выступить в суде со свидетельствами против своих бывших друзей. За его голову гангстерами назначена награда в 1 миллион долларов. ФБР всячески пытается укрыть его до суда, но он периодически упорно появляется на людях, привлекая, словно свет в ночи, десятки наемных убийц.



Страна: Великобритания, Франция, США
Продолжительность: 01:48:47
Перевод: Профессиональный (полное дублирование)

Формат: BDRip 720p
Видео: 1280x544p (2.35:1), 23.976 fps, AVC MPEG-4 (H.264), ~4682 kbps, 0.280 bit/pixel
Аудио#1: Русский: 48 kHz, AC3 Dolby Digital, 6 ch, ~384 kbps
Аудио#2: Английский: 48 kHz, AC3 Dolby Digital, 6 ch, ~384 kbps
Субтитры: Русские, английские

Format : Matroska
Format version : Version 2
File size : 4.14 GiB
Duration : 1h 48mn
Overall bit rate : 5 450 Kbps
Movie name : avt83@DHT-Movies
Encoded date : UTC 2013-02-16 14:07:40
Writing application : mkvmerge v4.0.0 ('The Stars were mine') built on Jun 6 2010 16:18:42
Writing library : libebml v1.0.0 + libmatroska v1.0.0

Video
ID : 1
Format : AVC
Format/Info : Advanced Video Codec
Format profile :
Format settings, CABAC : Yes
Format settings, ReFrames : 12 frames
Codec ID : V_MPEG4/ISO/AVC
Duration : 1h 48mn
Bit rate : 4 682 Kbps
Width : 1 280 pixels
Height : 544 pixels
Display aspect ratio : 2.35:1
Frame rate : 23.976 fps
Color space : YUV
Chroma subsampling : 4:2:0
Bit depth : 8 bits
Scan type : Progressive
Bits/(Pixel*Frame) : 0.280
Stream size : 3.48 GiB (84%)
Writing library : x264 core 119 r2106 07efeb4
Encoding settings : cabac=1 / ref=12 / deblock=1:-2:-1 / analyse=0x3:0x113 / me=umh / subme=11 / psy=1 / psy_rd=1.10:0.10 / mixed_ref=1 / me_range=32 / chroma_me=1 / trellis=2 / 8x8dct=1 / cqm=0 / deadzone=21,11 / fast_pskip=0 / chroma_qp_offset=-3 / threads=6 / sliced_threads=0 / nr=0 / decimate=0 / interlaced=0 / bluray_compat=0 / constrained_intra=0 / bframes=10 / b_pyramid=2 / b_adapt=2 / b_bias=0 / direct=3 / weightb=1 / open_gop=0 / weightp=2 / keyint=240 / keyint_min=24 / scenecut=40 / intra_refresh=0 / rc=2pass / mbtree=0 / bitrate=4682 / ratetol=1.0 / qcomp=0.70 / qpmin=0 / qpmax=69 / qpstep=4 / cplxblur=20.0 / qblur=0.5 / ip_ratio=1.40 / pb_ratio=1.30 / aq=1:1.00
Language : English
Default : No
Forced : No

Audio #1
ID : 2
Format : AC-3
Format/Info : Audio Coding 3
Mode extension : CM (complete main)
Format settings, Endianness : Big
Codec ID : A_AC3
Duration : 1h 48mn
Bit rate mode : Constant
Bit rate : 384 Kbps
Channel(s) : 6 channels
Channel positions : Front: L C R, Side: L R, LFE
Sampling rate : 48.0 KHz
Bit depth : 16 bits
Compression mode : Lossy
Stream size : 299 MiB (7%)
Title : Дубляж
Language : Russian
Default : Yes
Forced : No

Audio #2
ID : 3
Format : AC-3
Format/Info : Audio Coding 3
Mode extension : CM (complete main)
Format settings, Endianness : Big
Codec ID : A_AC3
Duration : 1h 48mn
Bit rate mode : Constant
Bit rate : 384 Kbps
Channel(s) : 6 channels
Channel positions : Front: L C R, Side: L R, LFE
Sampling rate : 48.0 KHz
Bit depth : 16 bits
Compression mode : Lossy
Stream size : 299 MiB (7%)
Title : Оригинал
Language : English
Default : No
Forced : No

Text #1
ID : 4
Format : UTF-8
Codec ID : S_TEXT/UTF8
Codec ID/Info : UTF-8 Plain Text
Title : full
Language : Russian
Default : Yes
Forced : No

Text #2
ID : 5
Format : UTF-8
Codec ID : S_TEXT/UTF8
Codec ID/Info : UTF-8 Plain Text
Title : full
Language : English
Default : No
Forced : No





_________________
Проголосуй за трекер Открытый торрент трекер - RUS-MEDIA.ORG

Проголосуй Открытый торрент трекер - RUS-MEDIA.ORG



реклама партнёра


Вернуться к началу
 Профиль Отправить личное сообщение  
 
   Похожие торренты   Автор   Торрент   Размер 
В этой теме нет новых непрочитанных сообщений. Козырные тузы / Smokin' Aces [Боевик, триллер, драма, криминал, 2006] BDRip 1080p, Dub+3Avo+Sub

salma3

18 | 3

13.48 ГБ

В этой теме нет новых непрочитанных сообщений. Отверженные / Fong juk [боевик, триллер, криминал, 2006] BDRip 720p, Avo+Mvo+Sub

salma3

150 | 37

4.71 ГБ

В этой теме нет новых непрочитанных сообщений. Плохой хороший полицейский / Bon Cop, Bad Cop [боевик, триллер, комедия, криминал, 2006] BDRip 720p, Dub

salma3

15 | 1

4.37 ГБ

В этой теме нет новых непрочитанных сообщений. Асы в небе / Aces High [боевик, драма, военный, 1976] BDRip, Dvo

salma3

177 | 28

1.45 ГБ

В этой теме нет новых непрочитанных сообщений. Выкуп / Butterfly on a Wheel [триллер, драма, криминал, 2006] BDRip 720p, Dub

salma3

62 | 16

4.36 ГБ

В этой теме нет новых непрочитанных сообщений. Контракт / The Contract [боевик, триллер, драма, криминал, 2006] BDRip, Mvo [Лицензия]

salma3

321 | 11

1.46 ГБ

В этой теме нет новых непрочитанных сообщений. Смерть супермена / Hollywoodland [триллер, драма, криминал, биография, история, 2006] BDRip 720p, Avo+Mvo+Sub

salma3

68 | 4

5.18 ГБ


Начать новую тему Ответить на тему  [ 1 сообщение ] 




Для Мосгорсуда, Роскомнадзора и рекламодателей:: mosgorsud-torrent[собачка]yandex.ru