Торрент файл
скачать торрент магнет ссылка Добавлен: 12 мар 2017, 12:27
Размер: 7.95 ГБ
Сидеров: 54
Личеров: 17
Статус: (salma3)
Автор

СообщениеДобавлено: 12 мар 2017, 12:27 

Не в сети
Супермодератор
Аватара пользователя
Дата регистрации:
15 фев 2012, 16:44
Возраст: 28
Спасибо: 6644 / 2146
Сообщения: 46014
Год выпуска: 2007
Жанр: фэнтези, мелодрама, семейный
Режиссер: Мэттью Вон

В ролях: Чарли Кокс, Клэр Дэйнс, Мишель Пфайффер, Роберт Де Ниро, Марк Стронг, Джейсон Флеминг, Руперт Эверетт, Кейт Магоуэн, Сиенна Миллер, Натаниель Паркер

Описание:
Маленькая английская деревенька отделена древней стеной от сверхъестественной параллельной вселенной, где царят магия и волшебство. Молодой Тристан Торн опрометчиво обещает самой красивой девушке деревни, что принесёт ей слетевшую с неба звезду, упавшую по ту сторону стены. На своём пути по следам древних легенд Тристан встретит всесильного короля и его заговорщика-сына, могущественную ведьму, капитана пиратского корабля и хитроумного торговца, а также найдёт свою истинную любовь, ключ к пониманию своей сущности и судьбы, о которой он мог только мечтать.



Страна: Великобритания, США, Исландия
Продолжительность: 02:07:41
Перевод: Профессиональный (полное дублирование)

Формат: BDRip 1080p
Видео: 1920x800p (2.40:1), 23.976 fps, AVC MPEG-4 (H.264), ~8016 kbps, 0.218 bit/pixel
Аудио1: Русский: 48 kHz, AC3 Dolby Digital, 6 ch, ~448 kbps
Аудио2: Английский: 48 kHz, AC3 Dolby Digital, 6 ch, ~448 kbps
Субтитры: Русские, английские

General
Unique ID : 249874902983648258700161962940919750767 (0xBBFC27E28E1A877B9FB40E87BAFCA06F)
Complete name : Stardust(2007)1080p.F-HD.mkv
Format : Matroska
Format version : Version 4 / Version 2
File size : 7.95 GiB
Duration : 2h 7mn
Overall bit rate mode : Variable
Overall bit rate : 8 907 Kbps
Encoded date : UTC 2013-05-17 05:03:29
Writing application : mkvmerge v6.2.0 ('Promised Land') built on Apr 28 2013 12:22:01
Writing library : libebml v1.3.0 + libmatroska v1.4.0

Video
ID : 1
Format : AVC
Format/Info : Advanced Video Codec
Format profile :
Format settings, CABAC : Yes
Format settings, ReFrames : 4 frames
Codec ID : V_MPEG4/ISO/AVC
Duration : 2h 7mn
Bit rate mode : Variable
Bit rate : 8 016 Kbps
Maximum bit rate : 50.0 Mbps
Width : 1 920 pixels
Height : 800 pixels
Display aspect ratio : 2.40:1
Frame rate mode : Constant
Frame rate : 23.976 fps
Color space : YUV
Chroma subsampling : 4:2:0
Bit depth : 8 bits
Scan type : Progressive
Bits/(Pixel*Frame) : 0.218
Stream size : 6.99 GiB (88%)
Writing library : x264 core 132 r2310 76a5c3a
Encoding settings : cabac=1 / ref=5 / deblock=1:-3:-3 / analyse=0x3:0x113 / me=umh / subme=11 / psy=1 / psy_rd=0.90:0.00 / mixed_ref=1 / me_range=48 / chroma_me=1 / trellis=2 / 8x8dct=1 / cqm=0 / deadzone=21,11 / fast_pskip=0 / chroma_qp_offset=-2 / threads=6 / lookahead_threads=1 / sliced_threads=0 / nr=0 / decimate=1 / interlaced=0 / bluray_compat=1 / constrained_intra=0 / bframes=3 / b_pyramid=1 / b_adapt=2 / b_bias=0 / direct=3 / weightb=1 / open_gop=1 / weightp=1 / keyint=240 / keyint_min=23 / scenecut=40 / intra_refresh=0 / rc_lookahead=40 / rc=2pass / mbtree=0 / bitrate=8016 / ratetol=1.0 / qcomp=0.75 / qpmin=0 / qpmax=69 / qpstep=4 / cplxblur=20.0 / qblur=0.5 / vbv_maxrate=50000 / vbv_bufsize=62500 / nal_hrd=vbr / ip_ratio=1.40 / pb_ratio=1.20 / aq=1:0.80
Language : English
Default : Yes
Forced : No
Color primaries : BT.709
Transfer characteristics : BT.709
Matrix coefficients : BT.709

Audio #1
ID : 2
Format : AC-3
Format/Info : Audio Coding 3
Mode extension : CM (complete main)
Format settings, Endianness : Big
Codec ID : A_AC3
Duration : 2h 7mn
Bit rate mode : Constant
Bit rate : 448 Kbps
Channel(s) : 6 channels
Channel positions : Front: L C R, Side: L R, LFE
Sampling rate : 48.0 KHz
Bit depth : 16 bits
Compression mode : Lossy
Stream size : 409 MiB (5%)
Language : Russian
Default : Yes
Forced : No

Audio #2
ID : 3
Format : AC-3
Format/Info : Audio Coding 3
Mode extension : CM (complete main)
Format settings, Endianness : Big
Codec ID : A_AC3
Duration : 2h 7mn
Bit rate mode : Constant
Bit rate : 448 Kbps
Channel(s) : 6 channels
Channel positions : Front: L C R, Side: L R, LFE
Sampling rate : 48.0 KHz
Bit depth : 16 bits
Compression mode : Lossy
Stream size : 409 MiB (5%)
Language : English
Default : No
Forced : No

Text #1
ID : 4
Format : UTF-8
Codec ID : S_TEXT/UTF8
Codec ID/Info : UTF-8 Plain Text
Language : Russian
Default : No
Forced : No

Text #2
ID : 5
Format : UTF-8
Codec ID : S_TEXT/UTF8
Codec ID/Info : UTF-8 Plain Text
Language : English
Default : No
Forced : No

Menu
00:00:00.000 : en:00:00:00.000
00:07:29.157 : en:00:07:29.157
00:15:59.917 : en:00:15:59.917
00:23:14.726 : en:00:23:14.726
00:30:02.759 : en:00:30:02.759
00:38:16.460 : en:00:38:16.460
00:44:41.512 : en:00:44:41.512
00:51:01.933 : en:00:51:01.933
00:56:46.111 : en:00:56:46.111
01:04:10.847 : en:01:04:10.847
01:11:55.269 : en:01:11:55.269
01:18:28.078 : en:01:18:28.078
01:25:06.476 : en:01:25:06.476
01:33:36.193 : en:01:33:36.193
01:42:08.372 : en:01:42:08.372
01:49:02.577 : en:01:49:02.577
01:55:44.729 : en:01:55:44.729
02:00:49.450 : en:02:00:49.450





_________________
Проголосуй за трекер Открытый торрент трекер - RUS-MEDIA.ORG

Проголосуй Открытый торрент трекер - RUS-MEDIA.ORG



реклама партнёра


Вернуться к началу
 Профиль Отправить личное сообщение  
 
   Похожие торренты   Автор   Торрент   Размер 
В этой теме нет новых непрочитанных сообщений. Что если... / What If... [Фэнтези, драма, мелодрама, семейный, 2010] BDRip 1080p, Mvo

salma3

110 | 55

8.09 ГБ

В этой теме нет новых непрочитанных сообщений. Малефисента / Maleficent [фэнтези, семейный, мелодрама, 2014] BDRip-HEVC 1080p, Dub [3D-Video] [Лицензия]

salma3

40 | 18

5.84 ГБ

В этой теме нет новых непрочитанных сообщений. Золушка / Cinderella (Кеннет Брана) [фэнтези, драма, мелодрама, приключения, семейный, 2015] BDRip 1080p, Dub+Sub [Лицензия]

Dracon

399 | 22

14.01 ГБ

В этой теме нет новых непрочитанных сообщений. Книга жизни  / The Book of Life (Хорхе Р. Гутьеррес) [Мультфильм, фэнтези, мелодрама, комедия, приключения, семейный, 2014] BDRip 1080p, Dub [iTunes]

Dracon

18 | 2

8 ГБ

В этой теме нет новых непрочитанных сообщений. Книга жизни / The Book of Life (Хорхе Р. Гутьеррес) [Мультфильм, фэнтези, мелодрама, комедия, приключения, семейный, 2014] BDRip 1080p, Mvo [3D-Video]

Dracon

154 | 45

7.76 ГБ

В этой теме нет новых непрочитанных сообщений. Книга жизни / The Book of Life (Хорхе Р. Гутьеррес) [Мультфильм, Фэнтези, Мелодрама, Комедия, Приключения, Семейный, 2014] BDRip 1080p, Dub+Sub [3D-Video | iTunes]

Dracon

75 | 3

7.92 ГБ

В этой теме нет новых непрочитанных сообщений. Звездная травка / Star Leaf [ужасы, фантастика, триллер, 2015] BDRip 1080p, Mvo

salma3

175 | 39

6.58 ГБ


Начать новую тему Ответить на тему  [ 1 сообщение ] 




Для Мосгорсуда, Роскомнадзора и рекламодателей:: mosgorsud-torrent[собачка]yandex.ru