Торрент файл
скачать торрент магнет ссылка Добавлен: 11 мар 2017, 14:40
Размер: 5.84 ГБ
Сидеров: 28
Личеров: 36
Статус: (salma3)
Автор

СообщениеДобавлено: 11 мар 2017, 14:40 

Не в сети
Супермодератор
Аватара пользователя
Дата регистрации:
15 фев 2012, 16:44
Возраст: 28
Спасибо: 6925 / 2147
Сообщения: 52870
Формат: HDTV 1080i

Режиссер: Стефан Бюлинг
Жанр: фэнтези, драма, мелодрама, семейный

Год выпуска: 2015

В ролях: Тим Оливер Шульц, Райнер Шёне, Фрида Ловиза Хаманн, Ютта Фастиан, Доминик Ранебургер, Эрвин Ледер, Хайнц Трикснер

Описание:
Вольная интерпретация сказки братьев Гримм "Белая змея". Сын крестьянина Эндрес случайно попадает в услужение могущественному королю. О его мудрости известно далеко за пределами королевства. Когда Эндрес выясняет источник знаний короля, он сам оказывается в смертельной опасности...



Страна: Германия, Австрия
Продолжительность: 01:31:23
Перевод: Профессиональный (многоголосый, закадровый)[Игмар]

Формат: HDTV 1080i
Видео: 1920x1080p (16:9), 25 fps, AVC (x264) ~8247 kbps avg, 0.159 bit/pixel
Аудио: Русский: 48 kHz, AC3 Dolby Digital, 3/2 (L,C,R,l,r) + LFE ch, ~448 kbps avg



Формат : MPEG-TS
Размер файла : 5,84 Гбайт
Продолжительность : 1 ч. 31 м.
Режим общего битрейта : Переменный
Общий поток : 9152 Кбит/сек

Видео
Идентификатор : 3031 (0xBD7)
Идентификатор меню : 122 (0x7A)
Формат : AVC
Формат/Информация : Advanced Video Codec
Профиль формата : Main@L4
Параметр CABAC формата : Да
Параметр ReFrames формата : 4 кадра
Параметр GOP формата : M=1, N=32
Идентификатор кодека : 27
Продолжительность : 1 ч. 31 м.
Битрейт : 8247 Кбит/сек
Ширина : 1920 пикселей
Высота : 1080 пикселей
Соотношение сторон : 16:9
Частота кадров : 25,000 кадров/сек
Цветовое пространство : YUV
Субдискретизация насыщенности : 4:2:0
Битовая глубина : 8 бит
Тип развёртки : Чересстрочная
Порядок развёртки : Верхнее поле первое
Бит/(Пиксели*Кадры) : 0.159
Размер потока : 5,26 Гбайт (90%)
Цветовой диапазон : Limited
Основные цвета : BT.709
Характеристики трансфера : BT.709
Коэффициенты матрицы : BT.709

Аудио
Идентификатор : 3033 (0xBD9)
Идентификатор меню : 122 (0x7A)
Формат : AC-3
Формат/Информация : Audio Coding 3
Расширение режима : CM (complete main)
Параметр Endianness формата : Big
Идентификатор кодека : 6
Продолжительность : 1 ч. 31 м.
Вид битрейта : Постоянный
Битрейт : 448 Кбит/сек
Каналы : 6 каналов
Расположение каналов : Front: L C R, Side: L R, LFE
Частота : 48,0 КГц
Метод сжатия : С потерями
Размер потока : 293 Мбайт (5%)
Язык : Russian



_________________
Проголосуй за трекер Открытый торрент трекер - RUS-MEDIA.ORG

Проголосуй Открытый торрент трекер - RUS-MEDIA.ORG



реклама партнёра


Вернуться к началу
 Профиль Отправить личное сообщение  
 
   Похожие торренты   Автор   Торрент   Размер 
В этой теме нет новых непрочитанных сообщений. Белая свадьба / Noce blanche [драма, мелодрама, 1989] HDTV 1080i, Dvo

salma3

9 | 1

3.95 ГБ

В этой теме нет новых непрочитанных сообщений. Принц-медведь / Der Prinz im Barenfell [фэнтези, семейный, 2015] HDTV 1080i, Mvo

salma3

86 | 30

4.05 ГБ

В этой теме нет новых непрочитанных сообщений. Змея и Мангуст / Snake and Mongoose [Драма, спорт, 2013] BDRip 1080p, Avo

salma3

37 | 16

6.69 ГБ

В этой теме нет новых непрочитанных сообщений. Джем и голограммы / Jem and the Holograms [Фантастика, фэнтези, драма, 2015] HDTV 1080i, Dub

salma3

26 | 10

8.52 ГБ

В этой теме нет новых непрочитанных сообщений. Провинциалка [01-02 из 02] (Александр Кананович) [Драма, мелодрама, 2015] HDTV 1080i

Dracon

166 | 9

7.88 ГБ

В этой теме нет новых непрочитанных сообщений. Инсайт / Слепая любовь [Драма, мелодрама, 2015] HDTV 1080i

salma3

124 | 50

4.15 ГБ

В этой теме нет новых непрочитанных сообщений. Белая ночь [01-04 из 04] (Александр Якимчук) [Военный, 2014] HDTV 1080i

Dracon

269 | 27

13.18 ГБ


Начать новую тему Ответить на тему  [ 1 сообщение ] 




Для Мосгорсуда, Роскомнадзора и рекламодателей:: mosgorsud-torrent[собачка]yandex.ru
cron