Торрент файл
скачать торрент магнет ссылка Добавлен: 09 мар 2017, 12:30
Размер: 8.67 ГБ
Сидеров: 33
Личеров: 27
Статус: (salma3)
Автор

СообщениеДобавлено: 09 мар 2017, 12:30 

Не в сети
Супермодератор
Аватара пользователя
Дата регистрации:
15 фев 2012, 16:44
Возраст: 28
Спасибо: 6642 / 2146
Сообщения: 45738
Режиссер: Вуди Аллен
Жанр: триллер, драма, мелодрама, криминал

Год выпуска: 2007

В ролях: Юэн МакГрегор, Колин Фаррелл, Хейли Этвелл, Салли Хокинс, Том Уилкинсон, Питер-Хьюго Дэйли, Джон Бенфилд, Клэр Хиггинс

Описание:
Два брата — Терри и Иен, дети не очень богатых родителей, также постоянно испытывают нехватку денег. Каждый зарабатывает их по-своему. Терри — игрой в карты и ставками на собачьих бегах. Более спокойный и рационально мыслящий Иен пытается пробить себе дорогу в мир инвестиционного бизнеса. Однако ни у того ни у другого не хватает удачи и стартового капитала, чтобы обеспечить все свои нужды. На помощь семье часто приходит дядюшка Ховард, успешный владелец нескольких клиник. Вот и сейчас братья обращаются к нему за помощью. Терри проигрался в пух и прах и рискует жизнью, если не отдаст долг, ну а Иен влюбился в женщину, которая требует немалых вложений. Дядя готов помочь, но в обмен просит племянников о тайной и страшной услуге. Братья соглашаются, и с этой минуты их жизнь меняется навсегда.



Страна: США, Великобритания, Франция
Продолжительность: 01:48:04
Перевод: Профессиональный (многоголосый, закадровый)
Субтитры: Русские, английские

Формат: BDRip 1080p
Видео: 1920x1036p (1.85:1), 24 fps, AVC MPEG-4 (H.264), ~10.2 Mbps, 0.214 bit/pixel
Аудио1: Русский: 48 kHz, AC3 Dolby Digital, 6 ch, ~640 kbps
Аудио2: Английский: 48 kHz, AC3 Dolby Digital, 6 ch, ~640 kbps

Общее
Уникальный идентификатор : 236746855901967347446323858904390943423 (0xB21BC930E180B9C89B075F5EFBA9C2BF)
Полное имя : Cassandras.Dream.2007.x264.BDRip.1080p.mkv
Формат : Matroska
Версия формата : Version 2
Размер файла : 8,67 Гбайт
Продолжительность : 1 ч. 48 м.
Общий поток : 11,5 Мбит/сек
Название фильма : ☭WIDDER☭
Дата кодирования : UTC 2013-04-19 00:09:03
Программа кодирования : mkvmerge v4.5.0 ('Speed of Light') сборка от Feb 1 2011 02:10:32
Библиотека кодирования : libebml v1.2.0 + libmatroska v1.1.0

Видео
Идентификатор : 1
Формат : AVC
Формат/Информация : Advanced Video Codec
Профиль формата :
Параметр CABAC формата : Да
Параметр ReFrames формата : 4 кадра
Идентификатор кодека : V_MPEG4/ISO/AVC
Продолжительность : 1 ч. 48 м.
Битрейт : 10,2 Мбит/сек
Ширина : 1920 пикселей
Высота : 1036 пикселей
Соотношение сторон : 1,85:1
Режим частоты кадров : Постоянный
Частота кадров : 24,000 кадра/сек
Цветовое пространство : YUV
Субдискретизация насыщенности : 4:2:0
Битовая глубина : 8 бит
Тип развёртки : Прогрессивная
Бит/(Пиксели*Кадры) : 0.214
Размер потока : 7,53 Гбайт (87%)
Заголовок : Мечта Кассандры / Cassandra's Dream (2007)
Библиотека кодирования : x264 core 130 r2273 b3065e6
Настройки программы : cabac=1 / ref=4 / deblock=1:-3:-3 / analyse=0x3:0x133 / me=umh / subme=11 / psy=1 / psy_rd=1.00:0.00 / mixed_ref=1 / me_range=48 / chroma_me=1 / trellis=2 / 8x8dct=1 / cqm=0 / deadzone=21,11 / fast_pskip=0 / chroma_qp_offset=-2 / threads=12 / lookahead_threads=1 / sliced_threads=0 / nr=0 / decimate=1 / interlaced=0 / bluray_compat=0 / constrained_intra=0 / bframes=5 / b_pyramid=2 / b_adapt=2 / b_bias=0 / direct=3 / weightb=1 / open_gop=0 / weightp=2 / keyint=240 / keyint_min=24 / scenecut=40 / intra_refresh=0 / rc_lookahead=60 / rc=2pass / mbtree=0 / bitrate=10203 / ratetol=1.0 / qcomp=0.60 / qpmin=0 / qpmax=69 / qpstep=4 / cplxblur=20.0 / qblur=0.5 / vbv_maxrate=62500 / vbv_bufsize=78125 / nal_hrd=none / ip_ratio=1.40 / pb_ratio=1.30 / aq=1:1.00
Язык : English
Default : Да
Forced : Нет

Аудио #1
Идентификатор : 2
Формат : AC-3
Формат/Информация : Audio Coding 3
Расширение режима : CM (complete main)
Параметр Endianness формата : Big
Идентификатор кодека : A_AC3
Продолжительность : 1 ч. 48 м.
Вид битрейта : Постоянный
Битрейт : 640 Кбит/сек
Каналы : 6 каналов
Расположение каналов : Front: L C R, Side: L R, LFE
Частота : 48,0 КГц
Битовая глубина : 16 бит
Метод сжатия : С потерями
Размер потока : 495 Мбайт (6%)
Заголовок : AC3, 640 Kbps (6 ch) Профессиональный многоголосый (R5)
Язык : Russian
Default : Да
Forced : Нет

Аудио #2
Идентификатор : 3
Формат : AC-3
Формат/Информация : Audio Coding 3
Расширение режима : CM (complete main)
Параметр Endianness формата : Big
Идентификатор кодека : A_AC3
Продолжительность : 1 ч. 48 м.
Вид битрейта : Постоянный
Битрейт : 640 Кбит/сек
Каналы : 6 каналов
Расположение каналов : Front: L C R, Side: L R, LFE
Частота : 48,0 КГц
Битовая глубина : 16 бит
Метод сжатия : С потерями
Размер потока : 495 Мбайт (6%)
Заголовок : AC3, 640 Kbps (6 ch) Original
Язык : English
Default : Нет
Forced : Нет

Текст #1
Идентификатор : 4
Формат : UTF-8
Идентификатор кодека : S_TEXT/UTF8
Идентификатор кодека/Информация : UTF-8 Plain Text
Язык : Russian
Default : Нет
Forced : Нет

Текст #2
Идентификатор : 5
Формат : UTF-8
Идентификатор кодека : S_TEXT/UTF8
Идентификатор кодека/Информация : UTF-8 Plain Text
Язык : English
Default : Нет
Forced : Нет

Меню
00:00:00.000 : :Chapter 01
00:07:43.040 : :Chapter 02
00:17:25.041 : :Chapter 03
00:26:37.083 : :Chapter 04
00:33:10.666 : :Chapter 05
00:45:21.250 : :Chapter 06
00:56:49.750 : :Chapter 07
01:00:52.250 : :Chapter 08
01:09:19.250 : :Chapter 09
01:17:20.582 : :Chapter 10
01:25:45.457 : :Chapter 11
01:36:20.041 : :Chapter 12





_________________
Проголосуй за трекер Открытый торрент трекер - RUS-MEDIA.ORG

Проголосуй Открытый торрент трекер - RUS-MEDIA.ORG



реклама партнёра


Вернуться к началу
 Профиль Отправить личное сообщение  
 
   Похожие торренты   Автор   Торрент   Размер 
В этой теме нет новых непрочитанных сообщений. Аризонская мечта / Arizona Dream [фэнтези, драма, мелодрама, комедия, 1993] BDRip-AVC, Mvo

salma3

0 | 10

4.37 ГБ

В этой теме нет новых непрочитанных сообщений. Рыба-мечта [Комедия, мелодрама, триллер, 2016] WEB-DL 1080p [iTunes]

salma3

528 | 43

2.85 ГБ

В этой теме нет новых непрочитанных сообщений. Шум / Noise [триллер, драма, криминал, 2007] BDRip 1080p, Avo

salma3

36 | 7

7.03 ГБ

В этой теме нет новых непрочитанных сообщений. Заложники / Take [Триллер, драма, криминал, 2007] BDRip 1080p, Dvo

salma3

31 | 0

7.78 ГБ

В этой теме нет новых непрочитанных сообщений. Отважная / The Brave One [триллер, драма, криминал, 2007] BDRip 1080p, Dub+Avo+Sub

salma3

10 | 23

10 ГБ

В этой теме нет новых непрочитанных сообщений. Наркоз / Awake [триллер, драма, мелодрама, 2007] BDRip 1080p, Dub

salma3

169 | 91

7.84 ГБ

В этой теме нет новых непрочитанных сообщений. Воздух, которым я дышу / The Air I Breathe [Триллер, драма, криминал, 2007] BDRip 1080p, Mvo+Sub

salma3

87 | 30

8.2 ГБ


Начать новую тему Ответить на тему  [ 1 сообщение ] 




Для Мосгорсуда, Роскомнадзора и рекламодателей:: mosgorsud-torrent[собачка]yandex.ru