Торрент файл
скачать торрент магнет ссылка Добавлен: 08 мар 2017, 22:06
Размер: 18.58 ГБ
Сидеров: 46
Личеров: 108
Статус: (salma3)
Автор

СообщениеДобавлено: 08 мар 2017, 22:06 

Не в сети
Супермодератор
Аватара пользователя
Дата регистрации:
15 фев 2012, 16:44
Возраст: 28
Спасибо: 6565 / 2130
Сообщения: 43739
Год выхода: 2011
Жанр: драма, мелодрама
Режиссер: Даниель Отой

В ролях: Даниель Отой, Кад Мерад, Сабин Азема, Жан-Пьер Дарруссен, Николя Дювошель, Астрид Берже-Фрисби, Эмили Казнав, Мари-Анн Шазель, Колин Боссо, Клое Маларде

О фильме:
18-летняя Патрисия, дочь землекопа Паскаля Аморетти, влюбляется в красавца-лётчика Жака Мазеля, но он уходит на войну, оставив девушку «в положении». Жак погибает на фронте. Когда Патрисия родила, богатые родители Жака Мазеля отказались признать ребёнка. Но у девушки есть замечательный отец, который всегда поддержит её…



Страна: Франция
Продолжительность: 01:49:06
Перевод: Профессиональный (двухголосый закадровый) НТВ+

Файл
Формат: MKV
Качество: BDRip 1080p
Видео: 1920x1040 at 24.000 fps, [email protected], ~22.2 Mbps avg
Aудио#1: Russian: 48 kHz, AC3, 2/0 (L,R) ch, ~192.00 kbps avg
Aудио#2: French: 48 kHz, DTS, 3/2 (L,C,R,l,r) + LFE ch, ~1509 kbps avg
Субтитры: Русские, французские, английские

General
Unique ID : 227079878169231558271737330853862669941 (0xAAD5FE64003BDB62B5B66349AD077E75)
Complete name : La.fille.du.puisatier.2011.BDRip.1080p.mkv
Format : Matroska
Format version : Version 2
File size : 18.6 GiB
Duration : 1 h 49 min
Overall bit rate : 24.4 Mb/s
Encoded date : UTC 2013-11-09 12:15:30
Writing application : mkvmerge v5.8.0 ('No Sleep / Pillow') built on Sep 2 2012 15:37:04
Writing library : libebml v1.2.3 + libmatroska v1.3.0
Attachments : poster.jpg / poster.jpg

Video
ID : 1
Format : AVC
Format/Info : Advanced Video Codec
Format profile : High@L4.1
Format settings, CABAC : Yes
Format settings, ReFrames : 4 frames
Codec ID : V_MPEG4/ISO/AVC
Duration : 1 h 49 min
Bit rate : 22.2 Mb/s
Width : 1 920 pixels
Height : 1 040 pixels
Display aspect ratio : 1.85:1
Frame rate mode : Constant
Frame rate : 24.000 FPS
Color space : YUV
Chroma subsampling : 4:2:0
Bit depth : 8 bits
Scan type : Progressive
Bits/(Pixel*Frame) : 0.463
Stream size : 16.9 GiB (91%)
Title : La fille du puisatier (2011)
Writing library : x264 core 138 r2359+704+48 3f879a0 tMod [8-bit@all X86_64]
Encoding settings : cabac=1 / ref=4 / deblock=1:-2:-2 / analyse=0x3:0x133 / me=tesa / subme=11 / psy=1 / fade_compensate=0.00 / psy_rd=1.05:0.10 / mixed_ref=1 / me_range=36 / chroma_me=1 / trellis=2 / 8x8dct=1 / cqm=0 / deadzone=21,11 / fast_pskip=0 / chroma_qp_offset=-3 / threads=12 / lookahead_threads=3 / sliced_threads=0 / nr=0 / decimate=1 / interlaced=0 / bluray_compat=0 / constrained_intra=0 / fgo=0 / bframes=16 / b_pyramid=2 / b_adapt=2 / b_bias=0 / direct=3 / weightb=1 / open_gop=0 / weightp=2 / keyint=250 / keyint_min=24 / scenecut=40 / intra_refresh=0 / rc=crf / mbtree=0 / crf=21.0000 / qcomp=0.75 / qpmin=0:0:0 / qpmax=69:69:69 / qpstep=4 / ip_ratio=1.30 / pb_ratio=1.10 / aq=1:0.70 / aq-sensitivity=10.00 / aq-factor=1.00:1.00:1.00 / aq2=1:0.70 / aq2-sensitivity=15.00 / aq2-factor=1.00:1.00:1.00 / aq3=0 / zones=24,313,q=15
Language : French
Default : Yes
Forced : No

Audio #1
ID : 2
Format : AC-3
Format/Info : Audio Coding 3
Mode extension : CM (complete main)
Format settings, Endianness : Big
Codec ID : A_AC3
Duration : 1 h 49 min
Bit rate mode : Constant
Bit rate : 192 kb/s
Channel(s) : 2 channels
Channel positions : Front: L R
Sampling rate : 48.0 kHz
Frame rate : 31.250 FPS (1536 spf)
Bit depth : 16 bits
Compression mode : Lossy
Stream size : 150 MiB (1%)
Title : DVO, НТВ+
Language : Russian
Default : Yes
Forced : No

Audio #2
ID : 3
Format : DTS
Format/Info : Digital Theater Systems
Mode : 16
Format settings, Endianness : Big
Codec ID : A_DTS
Duration : 1 h 49 min
Bit rate mode : Constant
Bit rate : 1 509 kb/s
Channel(s) : 6 channels
Channel positions : Front: L C R, Side: L R, LFE
Sampling rate : 48.0 kHz
Frame rate : 93.750 FPS (512 spf)
Bit depth : 24 bits
Compression mode : Lossy
Stream size : 1.15 GiB (6%)
Language : French
Default : No
Forced : No

Text #1
ID : 4
Format : UTF-8
Codec ID : S_TEXT/UTF8
Codec ID/Info : UTF-8 Plain Text
Language : Russian
Default : No
Forced : No

Text #2
ID : 5
Format : UTF-8
Codec ID : S_TEXT/UTF8
Codec ID/Info : UTF-8 Plain Text
Language : French
Default : No
Forced : No

Text #3
ID : 6
Format : UTF-8
Codec ID : S_TEXT/UTF8
Codec ID/Info : UTF-8 Plain Text
Language : English
Default : No
Forced : No

Menu
00:00:00.000 : fr:une princesse
00:08:54.875 : fr:le fils du bazar
00:17:49.666 : fr:la fête de Patricia
00:24:14.333 : fr:le meeting d'aviation
00:35:30.416 : fr:"Je vous aime"
00:42:47.583 : fr:départ pour la guerre
00:51:41.375 : fr:un enfant pedru
01:02:07.250 : fr:la permission
01:13:54.041 : fr:Amoretti
01:20:52.125 : fr:le puits des Mazel
01:29:55.875 : fr:le retour de Jacques
01:46:11.958 : fr:générique de fin


_________________
Проголосуй за трекер Открытый торрент трекер - RUS-MEDIA.ORG

Проголосуй Открытый торрент трекер - RUS-MEDIA.ORG



реклама партнёра


Вернуться к началу
 Профиль Отправить личное сообщение  
 
   Похожие торренты   Автор   Торрент   Размер 
В этой теме нет новых непрочитанных сообщений. Дочь линии метро / La fille du RER [драма, 2009] DVDRip, Avo+Sub

salma3

50 | 8

1.46 ГБ

В этой теме нет новых непрочитанных сообщений. Дочь Бреста / La fille de Brest [драма, 2016] WEB-DLRip, Mvo

salma3

179 | 42

1.37 ГБ

В этой теме нет новых непрочитанных сообщений. Блудная дочь / La fille prodigue (Жак Дуайон / Jacques Doillon) [1981г., Франция, драма, DVB] Sub

Alfredovich

23 | 2

2.04 ГБ

В этой теме нет новых непрочитанных сообщений. Неизвестная / La fille inconnue [драма, криминал, 2016] BDRip 1080p, Mvo [iTunes]

salma3

191 | 77

9.03 ГБ

В этой теме нет новых непрочитанных сообщений. Чужая дочь / Audrey Rose [ужасы, фэнтези, триллер, драма, 1977] BDRip 1080p, Mvo+Sub

salma3

7 | 5

15.73 ГБ

В этой теме нет новых непрочитанных сообщений. Дочь и мать её / Snatched [Боевик, комедия, 2017] BDRip 1080p, Mvo [iTunes]

salma3

329 | 32

6.68 ГБ

В этой теме нет новых непрочитанных сообщений. Дочь Бога / Exposed [триллер, драма, криминал, детектив, 2016] BDRip, mvo [iTunes]

marya111

141 | 11

1.41 ГБ


Начать новую тему Ответить на тему  [ 1 сообщение ] 




Для Мосгорсуда, Роскомнадзора и рекламодателей:: mosgorsud-torrent[собачка]yandex.ru