Торрент файл
скачать торрент магнет ссылка Добавлен: 07 мар 2017, 12:27
Размер: 41.45 ГБ
Сидеров: 38
Личеров: 56
Статус: (salma3)
Автор

СообщениеДобавлено: 07 мар 2017, 12:27 

Не в сети
Супермодератор
Аватара пользователя
Дата регистрации:
15 фев 2012, 16:44
Возраст: 29
Спасибо: 7328 / 2147
Сообщения: 73638
Год выпуска:2015
Жанр: боевик, триллер, драма
Режиссеры:Пьер Морель

В ролях: Шон Пенн, Хавьер Бардем, Рэй Уинстон, Жазмин Тринка, Идрис Эльба, Марк Райлэнс, Петер Францен, Билли Биллинхэм, Адэ Ойефесо

Описание: Джим Террье — ганмен, международный наемник высочайшего класса. Но когда в Компании начинают подчищать хвосты, Джим сам становится мишенью. Чтобы выжить, Джим угрожает обнародовать имеющийся у него компромат и обращается к бывшему напарнику Феликсу. Однако у Феликса есть свои резоны желать, чтобы Джим Террье исчез из его жизни. Это Энни — женщина, которую они оба любят. За Джимом начинается смертельная охота по всей Европе, и у него не остается другого выбора, кроме как дать бой — один против всех...



Страна:США / Испания / Великобритания
Продолжительность:01:15:50
Перевод: Профессиональный (полное дублирование) | iTunes + Авторский (одноголосый) | 2х Дмитрий Есарев / Михаил «kyberpunk» Яроцкий

Качество:BDRemux 1080p
Видео: 1920x1080 (16:9), 23.976 fps, MPEG-4 AVC ~35.3 Мbps avg
Аудио №1: 48.0 kHz, AC3 Dolby Digital, 3/2 (L,C,R,l,r) + LFE ch, ~384 kbps | RUS / DUB / iTunes
Аудио №2: 48.0 kHz, Digital Theater Systems Master Audio, 8 ch, ~5094 kbps / 24-bit | Дмитрий Есарев
Аудио №3: 48.0 kHz, Digital Theater Systems Master Audio, 8 ch, ~4463 kbps / 24-bit | Дмитрий Есарев / без цензуры
Аудио №4: 48.0 kHz, Digital Theater Systems High-Res Audio, 8 ch, ~2046 kbps / 24-bit | Михаил «kyberpunk» Яроцкий / без цензуры
Аудио №5: 48.0 kHz, Digital Theater Systems Master Audio, 8 ch, ~4051 kbps / 24-bit | ENG
Формат субтитров: UTF-8 Plain Text
Субтитры: английские (forced + full)



Уникальный идентификатор : 215400145931954126260289495279131593366 (0xA20C8F21AC855DCB9447370DB31A8A96)
Полное имя : Ганмен.2015.Blu-Ray.Remux.(1080p).mkv
Формат : Matroska
Версия формата : Version 4 / Version 2
Размер файла : 41,4 Гбайт
Продолжительность : 1 ч. 55 м.
Режим общего битрейта : Переменный
Общий поток : 51,3 Мбит/сек
Дата кодирования : UTC 2017-03-06 17:59:19
Программа кодирования : mkvmerge v9.9.0 ('Pick Up') 64bit
Библиотека кодирования : libebml v1.3.4 + libmatroska v1.4.5

Видео
Идентификатор : 1
Формат : AVC
Формат/Информация : Advanced Video Codec
Профиль формата : High@L4.1
Параметр CABAC формата : Да
Параметр ReFrames формата : 4 кадра
Идентификатор кодека : V_MPEG4/ISO/AVC
Продолжительность : 1 ч. 55 м.
Вид битрейта : Переменный
Битрейт : 35,3 Мбит/сек
Максимальный битрейт : 37,0 Мбит/сек
Ширина : 1920 пикселей
Высота : 1080 пикселей
Соотношение сторон : 16:9
Режим частоты кадров : Постоянный
Частота кадров : 23,976 (24000/1001) кадра/сек
Цветовое пространство : YUV
Субдискретизация насыщенности : 4:2:0
Битовая глубина : 8 бит
Тип развёртки : Прогрессивная
Бит/(Пиксели*Кадры) : 0.710
Размер потока : 28,5 Гбайт (69%)
Заголовок : The Gunman 2015 1080p REPACK Hybrid Remux AVC TrueHD 7.1-BiZKiT
Default : Да
Forced : Нет

Аудио #1
Идентификатор : 2
Формат : AC-3
Формат/Информация : Audio Coding 3
Параметр Endianness формата : Big
Идентификатор кодека : A_AC3
Продолжительность : 1 ч. 55 м.
Вид битрейта : Постоянный
Битрейт : 384 Кбит/сек
Каналы : 6 каналов
Расположение каналов : Front: L C R, Side: L R, LFE
Частота : 48,0 КГц
Частота кадров : 31,250 кадров/сек (1536 spf)
Битовая глубина : 16 бит
Метод сжатия : С потерями
Размер потока : 318 Мбайт (1%)
Заголовок : Dub, iTunes
Язык : Russian
ServiceKind : Complete Main
Default : Да
Forced : Нет

Аудио #2
Идентификатор : 3
Формат : DTS
Формат/Информация : Digital Theater Systems
Профиль формата : MA / Core
Режим : 16
Параметр Endianness формата : Big
Идентификатор кодека : A_DTS
Продолжительность : 1 ч. 55 м.
Вид битрейта : Переменный / Постоянный
Битрейт : 5094 Кбит/сек / 1509 Кбит/сек
Каналы : 8 каналов / 6 каналов
Расположение каналов : Front: L C R, Side: L R, Back: L R, LFE / Front: L C R, Side: L R, LFE
Частота : 48,0 КГц
Частота кадров : 93,750 кадра/сек (512 spf)
Битовая глубина : 24 бит
Метод сжатия : Без потерь / Lossy
Размер потока : 4,12 Гбайт (10%)
Заголовок : Д. Есарев
Язык : Russian
Default : Нет
Forced : Нет

Аудио #3
Идентификатор : 4
Формат : DTS
Формат/Информация : Digital Theater Systems
Профиль формата : MA / Core
Режим : 16
Параметр Endianness формата : Big
Идентификатор кодека : A_DTS
Продолжительность : 1 ч. 55 м.
Вид битрейта : Переменный / Постоянный
Битрейт : 4463 Кбит/сек / 1509 Кбит/сек
Каналы : 8 каналов / 6 каналов
Расположение каналов : Front: L C R, Side: L R, Back: L R, LFE / Front: L C R, Side: L R, LFE
Частота : 48,0 КГц
Частота кадров : 93,750 кадра/сек (512 spf)
Битовая глубина : 24 бит
Метод сжатия : Без потерь / Lossy
Размер потока : 3,61 Гбайт (9%)
Заголовок : Д. Есарев, без цензуры
Язык : Russian
Default : Нет
Forced : Нет

Аудио #4
Идентификатор : 5
Формат : DTS
Формат/Информация : Digital Theater Systems
Профиль формата : HRA / Core
Режим : 16
Параметр Endianness формата : Big
Идентификатор кодека : A_DTS
Продолжительность : 1 ч. 55 м.
Вид битрейта : Постоянный
Битрейт : 2046 Кбит/сек / 1509 Кбит/сек
Каналы : 8 каналов / 6 каналов
Расположение каналов : Front: L C R, Side: L R, Back: L R, LFE / Front: L C R, Side: L R, LFE
Частота : 48,0 КГц
Частота кадров : 93,750 кадра/сек (512 spf)
Битовая глубина : 24 бит
Метод сжатия : С потерями
Размер потока : 1,65 Гбайт (4%)
Заголовок : М. Яроцкий, без цензуры
Язык : Russian
Default : Нет
Forced : Нет

Аудио #5
Идентификатор : 6
Формат : DTS
Формат/Информация : Digital Theater Systems
Профиль формата : MA / Core
Режим : 16
Параметр Endianness формата : Big
Идентификатор кодека : A_DTS
Продолжительность : 1 ч. 55 м.
Вид битрейта : Переменный / Постоянный
Битрейт : 4051 Кбит/сек / 1509 Кбит/сек
Каналы : 8 каналов / 6 каналов
Расположение каналов : Front: L C R, Side: L R, Back: L R, LFE / Front: L C R, Side: L R, LFE
Частота : 48,0 КГц
Частота кадров : 93,750 кадра/сек (512 spf)
Битовая глубина : 24 бит
Метод сжатия : Без потерь / Lossy
Размер потока : 3,27 Гбайт (8%)
Язык : English
Default : Нет
Forced : Нет

Текст #1
Идентификатор : 7
Формат : UTF-8
Идентификатор кодека : S_TEXT/UTF8
Идентификатор кодека/Информация : UTF-8 Plain Text
Продолжительность : 52 м. 26 с.
Битрейт : 0 бит/сек
ElementCount : 10
Размер потока : 314 байт (0%)
Заголовок : forced
Язык : English
Default : Нет
Forced : Нет

Текст #2
Идентификатор : 8
Формат : UTF-8
Идентификатор кодека : S_TEXT/UTF8
Идентификатор кодека/Информация : UTF-8 Plain Text
Продолжительность : 1 ч. 47 м.
Битрейт : 51 бит/сек
ElementCount : 982
Размер потока : 40,6 Кбайт (0%)
Заголовок : full
Язык : English
Default : Нет
Forced : Нет

Меню
00:00:00.000 : :Chapter 01
00:04:48.747 : :Chapter 02
00:10:29.963 : :Chapter 03
00:14:22.987 : :Chapter 04
00:18:00.788 : :Chapter 05
00:23:17.396 : :Chapter 06
00:27:53.130 : :Chapter 07
00:34:14.886 : :Chapter 08
00:39:51.139 : :Chapter 09
00:45:51.582 : :Chapter 10
00:50:19.934 : :Chapter 11
00:58:10.404 : :Chapter 12
01:04:37.165 : :Chapter 13
01:08:27.478 : :Chapter 14
01:14:44.230 : :Chapter 15
01:21:37.726 : :Chapter 16
01:31:18.223 : :Chapter 17
01:38:39.330 : :Chapter 18
01:45:34.370 : :Chapter 19
01:49:15.841 : :Chapter 20


_________________
Проголосуй за трекер Открытый торрент трекер - RUS-MEDIA.ORG

Проголосуй Открытый торрент трекер - RUS-MEDIA.ORG


Вернуться к началу
 Профиль Отправить личное сообщение  
 
   Похожие торренты   Автор   Торрент   Размер 
В этой теме нет новых непрочитанных сообщений. Гризли / Into the Grizzly Maze [ужасы, боевик, триллер, 2015] BDRemux 1080p, Mvo [iTunes]

salma3

4 | 1

19.38 ГБ

В этой теме нет новых непрочитанных сообщений. Под маской / Beyond the Mask [Боевик, драма, 2015] BDRemux 1080p, Mvo [iTunes]

salma3

437 | 139

15.76 ГБ

В этой теме нет новых непрочитанных сообщений. Скорость: Автобус 657 / Heist (Скотт Манн) [боевик, триллер, 2015] BDRemux 1080p, Dub [iTunes]

Dracon

96 | 27

17.89 ГБ

В этой теме нет новых непрочитанных сообщений. Терминатор: Генезис / Terminator: Genisys (Алан Тейлор) [фантастика, боевик, триллер, приключения, 2015] BDRemux 1080p, Dub+Sub [iTunes]

Dracon

161 | 5

30.05 ГБ

В этой теме нет новых непрочитанных сообщений. 6 дней / 6 Days [Боевик, триллер, драма, 2017] BDRemux 1080p, Mvo [iTunes]

salma3

6 | 3

18.97 ГБ

В этой теме нет новых непрочитанных сообщений. Отцы и дочери / Fathers and Daughters [Драма, 2015] BDRemux 1080p, Dub [iTunes]

salma3

137 | 150

23.34 ГБ

В этой теме нет новых непрочитанных сообщений. Безбашенные / Renegades [боевик, триллер, 2017] BDRemux 1080p, Dub [iTunes]

salma3

0 | 0

26.64 ГБ


Начать новую тему Ответить на тему  [ 1 сообщение ] 




Для Мосгорсуда, Роскомнадзора и рекламодателей:: mosgorsud-torrent[собачка]yandex.ru
cron