Торрент файл
скачать торрент магнет ссылка Добавлен: 07 мар 2017, 12:15
Размер: 32.59 ГБ
Сидеров: 21
Личеров: 31
Статус: (salma3)
Автор

СообщениеДобавлено: 07 мар 2017, 12:15 

Не в сети
Супермодератор
Аватара пользователя
Дата регистрации:
15 фев 2012, 16:44
Возраст: 29
Спасибо: 7379 / 2147
Сообщения: 76148
Год выхода: 2016
Жанр: боевик
Режиссер: Бенни Чан

В ролях: Луис Ку, Шон Лау, Эдди Пэн, Джеки Ву, Филип Кюн, Саммо Хунг

О фильме:
1914 год. Китай. Разгар междоусобных войн между кланами и правителями отдельных земель. В небольшом городке за совершенное убийство схвачен незнакомец. Однако, арестант — сын известного военачальника из враждебного клана. Горстке смельчаков и местному служителю закона предстоит вступить в бой с целой армией, чтобы защитить жителей и не дать преступнику уйти от правосудия



Страна: Гонконг
Продолжительность: 01:59:29
Перевод1: Авторский (одноголосый) | [Андрей Дольский]
Перевод2: Любительский (двухголосый, закадровый)[GREEN TEA]

Качество: BDRemux 1080p
Видео: 1920x1080 (16:9), 24.000 fps, MPEG-4 AVC ~31.6 Мbps avg
Аудио №1: 48.0 kHz, Digital Theater Systems Master Audio, 3/2 (L,C,R,l,r) + LFE ch, ~2395 kbps / 16-bit | RUS / AVO
Аудио №2: 48.0 kHz, AC3 Dolby Digital, 2/0 (L,R) ch, ~192 kbps | RUS / DVO / GREEN TEA
Аудио №3: 48.0 kHz, Digital Theater Systems Master Audio, 3/2 (L,C,R,l,r) + LFE ch, ~2402 kbps / 16-bit | CHI / Cantonese
Аудио №4: 48.0 kHz, Digital Theater Systems Master Audio, 3/2 (L,C,R,l,r) + LFE ch, ~2405 kbps / 16-bit | CHI / Mandarin
Субтитры: английские
Формат субтитров: UTF-8 Plain Textr]
Релиз от:

Уникальный идентификатор : 240262014224818250874630627373499293534 (0xB4C0C7E0817D68D0A94C37791CB81F5E)
Полное имя : Call.of.Heroes.2016.BDRemux.1080p_by_vedigo.mkv
Формат : Matroska
Версия формата : Version 4 / Version 2
Размер файла : 32,6 Гбайт
Продолжительность : 1 ч. 59 м.
Режим общего битрейта : Переменный
Общий поток : 39,1 Мбит/сек
Название фильма : Call.of.Heroes.2016.BDRemux.1080p_by_vedigo
Дата кодирования : UTC 2017-01-28 23:51:39
Программа кодирования : mkvmerge v9.8.0 ('Kuglblids') 64bit
Библиотека кодирования : libebml v1.3.4 + libmatroska v1.4.5

Видео
Идентификатор : 1
Формат : AVC
Формат/Информация : Advanced Video Codec
Профиль формата : High@L4.1
Параметр CABAC формата : Да
Параметр ReFrames формата : 4 кадра
Параметр GOP формата : M=3, N=24
Идентификатор кодека : V_MPEG4/ISO/AVC
Продолжительность : 1 ч. 59 м.
Вид битрейта : Переменный
Битрейт : 31,6 Мбит/сек
Максимальный битрейт : 35,0 Мбит/сек
Ширина : 1920 пикселей
Высота : 1080 пикселей
Соотношение сторон : 16:9
Режим частоты кадров : Постоянный
Частота кадров : 24,000 кадра/сек
Стандарт вещания : NTSC
Цветовое пространство : YUV
Субдискретизация насыщенности : 4:2:0
Битовая глубина : 8 бит
Тип развёртки : Прогрессивная
Бит/(Пиксели*Кадры) : 0.636
Размер потока : 26,4 Гбайт (81%)
Заголовок : Call.of.Heroes.2016.BDRemux.1080p_by_vedigo
Default : Да
Forced : Нет
Цветовой диапазон : Limited
Основные цвета : BT.709
Характеристики трансфера : BT.709
Коэффициенты матрицы : BT.709

Аудио #1
Идентификатор : 2
Формат : DTS
Формат/Информация : Digital Theater Systems
Профиль формата : MA / Core
Режим : 16
Параметр Endianness формата : Big
Идентификатор кодека : A_DTS
Продолжительность : 1 ч. 59 м.
Вид битрейта : Переменный / Постоянный
Битрейт : 2395 Кбит/сек / 1509 Кбит/сек
Каналы : 6 каналов
Расположение каналов : Front: L C R, Side: L R, LFE
Частота : 48,0 КГц
Частота кадров : 93,750 кадра/сек (512 spf)
Битовая глубина : 16 бит
Метод сжатия : Без потерь / Lossy
Размер потока : 2,00 Гбайт (6%)
Заголовок : AVO @ А. Дольский
Язык : Russian
Default : Да
Forced : Нет

Аудио #2
Идентификатор : 3
Формат : AC-3
Формат/Информация : Audio Coding 3
Расширение режима : CM (complete main)
Параметр Endianness формата : Big
Идентификатор кодека : A_AC3
Продолжительность : 1 ч. 59 м.
Вид битрейта : Постоянный
Битрейт : 192 Кбит/сек
Каналы : 2 канала
Расположение каналов : Front: L R
Частота : 48,0 КГц
Частота кадров : 31,250 кадров/сек (1536 spf)
Метод сжатия : С потерями
Размер потока : 164 Мбайт (0%)
Заголовок : DVO @ GREEN TEA
Язык : Russian
Default : Нет
Forced : Нет

Аудио #3
Идентификатор : 4
Формат : DTS
Формат/Информация : Digital Theater Systems
Профиль формата : MA / Core
Режим : 16
Параметр Endianness формата : Big
Идентификатор кодека : A_DTS
Продолжительность : 1 ч. 59 м.
Вид битрейта : Переменный / Постоянный
Битрейт : 2402 Кбит/сек / 1509 Кбит/сек
Каналы : 6 каналов
Расположение каналов : Front: L C R, Side: L R, LFE
Частота : 48,0 КГц
Частота кадров : 93,750 кадра/сек (512 spf)
Битовая глубина : 16 бит
Метод сжатия : Без потерь / Lossy
Размер потока : 2,00 Гбайт (6%)
Заголовок : Cantonese
Язык : Chinese
Default : Нет
Forced : Нет

Аудио #4
Идентификатор : 5
Формат : DTS
Формат/Информация : Digital Theater Systems
Профиль формата : MA / Core
Режим : 16
Параметр Endianness формата : Big
Идентификатор кодека : A_DTS
Продолжительность : 1 ч. 59 м.
Вид битрейта : Переменный / Постоянный
Битрейт : 2405 Кбит/сек / 1509 Кбит/сек
Каналы : 6 каналов
Расположение каналов : Front: L C R, Side: L R, LFE
Частота : 48,0 КГц
Частота кадров : 93,750 кадра/сек (512 spf)
Битовая глубина : 16 бит
Метод сжатия : Без потерь / Lossy
Размер потока : 2,01 Гбайт (6%)
Заголовок : Mandarin
Язык : Chinese
Default : Нет
Forced : Нет

Текст
Идентификатор : 6
Формат : UTF-8
Идентификатор кодека : S_TEXT/UTF8
Идентификатор кодека/Информация : UTF-8 Plain Text
Продолжительность : 1 ч. 52 м.
Битрейт : 34 бит/сек
Count of elements : 1282
Размер потока : 28,0 Кбайт (0%)
Заголовок : Subtitle eng
Язык : English
Default : Нет
Forced : Нет

Меню
00:00:00.000 : :Глава 01
00:08:56.208 : :Глава 02
00:24:09.958 : :Глава 03
00:32:18.166 : :Глава 04
00:40:09.041 : :Глава 05
00:45:38.375 : :Глава 06
00:53:11.583 : :Глава 07
01:00:14.666 : :Глава 08
01:14:37.583 : :Глава 09
01:20:53.458 : :Глава 10
01:30:44.500 : :Глава 11
01:41:10.208 : :Глава 12
01:50:31.166 : :Глава 13
01:55:08.458 : :Глава 14


_________________
Проголосуй за трекер Открытый торрент трекер - RUS-MEDIA.ORG

Проголосуй Открытый торрент трекер - RUS-MEDIA.ORG


Вернуться к началу
 Профиль Отправить личное сообщение  
 
   Похожие торренты   Автор   Торрент   Размер 
В этой теме нет новых непрочитанных сообщений. Зов героев / Wei cheng jian ba [боевик, 2016] BDRip, Mvo

salma3

310 | 93

1.45 ГБ

В этой теме нет новых непрочитанных сообщений. Зов героев / Wei cheng jian ba [боевик, 2016] BDRip, Avo [Дольский]

salma3

216 | 64

2.17 ГБ

В этой теме нет новых непрочитанных сообщений. Зов героев / Wei cheng jian ba [боевик, 2016] BDRip 720р, Avo+Dvo+Sub

salma3

81 | 53

9.6 ГБ

В этой теме нет новых непрочитанных сообщений. Из Вегаса в Макао / Du cheng feng yun [комедия, боевик, 2014] BDRip 1080p, Avo

salma3

39 | 36

8.58 ГБ

В этой теме нет новых непрочитанных сообщений. Десять героев Санады / Sanada juyushi [Боевик, комедия, 2016] HDRip, Mvo

salma3

798 | 82

2.05 ГБ

В этой теме нет новых непрочитанных сообщений. По следу / Skiptrace [Боевик, комедия, 2016] BDRemux 1080p, Mvo

salma3

22 | 3

19.83 ГБ

В этой теме нет новых непрочитанных сообщений. Из Вегаса в Макао 3 / Du cheng feng yun III [драма, комедия, 2016] WEBRip, Avo

salma3

246 | 6

1.45 ГБ


Начать новую тему Ответить на тему  [ 1 сообщение ] 




Для Мосгорсуда, Роскомнадзора и рекламодателей:: mosgorsud-torrent[собачка]yandex.ru
cron