Торрент файл
скачать торрент магнет ссылка Добавлен: 06 мар 2017, 22:26
Размер: 4.37 ГБ
Сидеров: 0
Личеров: 26
Автор

СообщениеДобавлено: 06 мар 2017, 22:26 

В сети
Супермодератор
Аватара пользователя
Дата регистрации:
15 фев 2012, 16:44
Возраст: 28
Спасибо: 6836 / 2147
Сообщения: 49482
Год выхода: 1992
Жанр: Боевик, Триллер
Режиссер: Уолтер Хилл

Актеры: Билл Пэкстон, Айс-Ти, Уильям Сэдлер, Айс Кьюб, Арт Эванс, Деворо Уайт, Брюс А. Янг, Гленн Пламмер, Стоуни Джексон, Т. Э. Рассел

Описание:
Дон и Винс — пожарные из Арканзаса, решившие, что нарвались на «золотую мину», когда им в руки попала «карта сокровищ», ведущая к золоту, украденному из католической церкви более 50 лет назад. Теперь его стоимость составляет более миллиона.
Золото спрятано где-то в потолке огромной, заброшенной фабрики в Восточном гетто Сент-Луиса. Чистая случайность приводит торговца наркотиками Кинга Джеймса и его боевиков на фабрику, чтобы казнить убийцу одного из своих курьеров.



Производство: США / Universal Pictures
Продолжительность: 01:41:19
Перевод: Профессиональный (двуголосый, закадровый), профессиональный (одноголосый, закадровый), авторский (одноголосый, закадровый)
Субтитры: Английские (SDH)

Качество видео: WEBRip 720p
Видео: AVC, 1280x720 (16:9), 23.976 fps, 4 797 Kbps (0.217 bit/pixel)
Аудио #1: AC-3, 48.0 KHz, 2 ch, 192 Kbps, CBR (Russian) - двухголосый
Аудио #2: AC-3, 48.0 KHz, 2 ch, 192 Kbps, CBR (Russian) - двухголосый ОРТ (Селена Интернешнл)
Аудио #3: AC-3, 48.0 KHz, 2 ch, 192 Kbps, CBR (Russian) - профессиональный одноголосый ОРТ (И.Тарадайкин)
Аудио #4: AC-3, 48.0 KHz, 2 ch, 192 Kbps, CBR (Russian) - авторский А.Гаврилов
Аудио #5: AC-3, 48.0 KHz, 2 ch, 192 Kbps, CBR (Russian) - авторский К.Филонов
Аудио #6: AC-3, 48.0 KHz, 2 ch, 192 Kbps, CBR (Russian) - авторский М.Яроцкий
Аудио #7: AC-3, 48.0 KHz, 2 ch, 224 Kbps, CBR (English) - оригинал

x264 [info]: profile High, level 4.1
x264 [info]: frame I:829 Avg QP:12.72 size: 95218 PSNR Mean Y:50.88 U:53.40 V:54.24 Avg:51.60 Global:50.78
x264 [info]: frame P:39278 Avg QP:15.69 size: 43331 PSNR Mean Y:48.84 U:51.83 V:52.61 Avg:49.67 Global:48.92
x264 [info]: frame B:105658 Avg QP:17.74 size: 17625 PSNR Mean Y:47.90 U:51.23 V:52.14 Avg:48.79 Global:47.88
Формат : Matroska
Версия формата : Version 2
Размер файла : 4,37 Гбайт
Продолжительность : 1 ч. 41 м.
Общий поток : 6173 Кбит/сек
Дата кодирования : UTC 2017-03-06 15:36:04
Программа кодирования : mkvmerge v5.3.0 ('I could have danced') built on Feb 9 2012 10:38:07
Библиотека кодирования : libebml v1.2.3 + libmatroska v1.3.0
Attachments : poster (2).jpg

Видео
Идентификатор : 1
Формат : AVC
Формат/Информация : Advanced Video Codec
Профиль формата : High@L4.1
Параметр CABAC формата : Да
Параметр ReFrames формата : 9 кадров
Идентификатор кодека : V_MPEG4/ISO/AVC
Продолжительность : 1 ч. 41 м.
Битрейт : 4797 Кбит/сек
Ширина : 1280 пикселей
Высота : 720 пикселей
Соотношение сторон : 16:9
Режим частоты кадров : Постоянный
Частота кадров : 23,976 (24000/1001) кадра/сек
Цветовое пространство : YUV
Субдискретизация насыщенности : 4:2:0
Битовая глубина : 8 бит
Тип развёртки : Прогрессивная
Бит/(Пиксели*Кадры) : 0.217
Размер потока : 3,31 Гбайт (76%)
Библиотека кодирования : x264 core 146 r2538 121396c
Настройки программы : cabac=1 / ref=9 / deblock=1:-3:-2 / analyse=0x3:0x133 / me=umh / subme=11 / psy=1 / psy_rd=1.05:0.00 / mixed_ref=1 / me_range=32 / chroma_me=1 / trellis=2 / 8x8dct=1 / cqm=0 / deadzone=21,11 / fast_pskip=0 / chroma_qp_offset=-2 / threads=12 / lookahead_threads=3 / sliced_threads=0 / nr=0 / decimate=0 / interlaced=0 / bluray_compat=0 / constrained_intra=0 / bframes=8 / b_pyramid=2 / b_adapt=2 / b_bias=0 / direct=3 / weightb=1 / open_gop=0 / weightp=2 / keyint=240 / keyint_min=23 / scenecut=40 / intra_refresh=0 / rc=2pass / mbtree=0 / bitrate=4797 / ratetol=1.0 / qcomp=0.60 / qpmin=0 / qpmax=69 / qpstep=4 / cplxblur=20.0 / qblur=0.5 / ip_ratio=1.40 / pb_ratio=1.30 / aq=1:0.70
Язык : English
Default : Да
Forced : Нет

Аудио #1
Идентификатор : 2
Формат : AC-3
Формат/Информация : Audio Coding 3
Расширение режима : CM (complete main)
Параметр Endianness формата : Big
Идентификатор кодека : A_AC3
Продолжительность : 1 ч. 41 м.
Вид битрейта : Постоянный
Битрейт : 192 Кбит/сек
Каналы : 2 канала
Расположение каналов : Front: L R
Частота : 48,0 КГц
Частота кадров : 31,250 кадров/сек (1536 spf)
Битовая глубина : 16 бит
Метод сжатия : С потерями
Размер потока : 139 Мбайт (3%)
Заголовок : DVO
Язык : Russian
Default : Нет
Forced : Нет

Аудио #2
Идентификатор : 3
Формат : AC-3
Формат/Информация : Audio Coding 3
Расширение режима : CM (complete main)
Параметр Endianness формата : Big
Идентификатор кодека : A_AC3
Продолжительность : 1 ч. 41 м.
Вид битрейта : Постоянный
Битрейт : 192 Кбит/сек
Каналы : 2 канала
Расположение каналов : Front: L R
Частота : 48,0 КГц
Частота кадров : 31,250 кадров/сек (1536 spf)
Битовая глубина : 16 бит
Метод сжатия : С потерями
Размер потока : 139 Мбайт (3%)
Заголовок : DVO ОРТ (Селена Интернешнл - Виталий Ованесов и Владимир Конкин)
Язык : Russian
Default : Нет
Forced : Нет

Аудио #3
Идентификатор : 4
Формат : AC-3
Формат/Информация : Audio Coding 3
Расширение режима : CM (complete main)
Параметр Endianness формата : Big
Идентификатор кодека : A_AC3
Продолжительность : 1 ч. 41 м.
Вид битрейта : Постоянный
Битрейт : 192 Кбит/сек
Каналы : 2 канала
Расположение каналов : Front: L R
Частота : 48,0 КГц
Частота кадров : 31,250 кадров/сек (1536 spf)
Битовая глубина : 16 бит
Метод сжатия : С потерями
Размер потока : 139 Мбайт (3%)
Заголовок : AVO ОРТ (Тарадайкин Игорь Георгиевич)
Язык : Russian
Default : Нет
Forced : Нет

Аудио #4
Идентификатор : 5
Формат : AC-3
Формат/Информация : Audio Coding 3
Расширение режима : CM (complete main)
Параметр Endianness формата : Big
Идентификатор кодека : A_AC3
Продолжительность : 1 ч. 41 м.
Вид битрейта : Постоянный
Битрейт : 192 Кбит/сек
Каналы : 2 канала
Расположение каналов : Front: L R
Частота : 48,0 КГц
Частота кадров : 31,250 кадров/сек (1536 spf)
Битовая глубина : 16 бит
Метод сжатия : С потерями
Размер потока : 139 Мбайт (3%)
Заголовок : AVO Гаврилов Андрей Юрьевич
Язык : Russian
Default : Нет
Forced : Нет

Аудио #5
Идентификатор : 6
Формат : AC-3
Формат/Информация : Audio Coding 3
Расширение режима : CM (complete main)
Параметр Endianness формата : Big
Идентификатор кодека : A_AC3
Продолжительность : 1 ч. 41 м.
Вид битрейта : Постоянный
Битрейт : 192 Кбит/сек
Каналы : 2 канала
Расположение каналов : Front: L R
Частота : 48,0 КГц
Частота кадров : 31,250 кадров/сек (1536 spf)
Битовая глубина : 16 бит
Метод сжатия : С потерями
Размер потока : 139 Мбайт (3%)
Заголовок : AVO Филонов Константин (voxsolus)
Язык : Russian
Default : Нет
Forced : Нет

Аудио #6
Идентификатор : 7
Формат : AC-3
Формат/Информация : Audio Coding 3
Расширение режима : CM (complete main)
Параметр Endianness формата : Big
Идентификатор кодека : A_AC3
Продолжительность : 1 ч. 41 м.
Вид битрейта : Постоянный
Битрейт : 192 Кбит/сек
Каналы : 2 канала
Расположение каналов : Front: L R
Частота : 48,0 КГц
Частота кадров : 31,250 кадров/сек (1536 spf)
Битовая глубина : 16 бит
Метод сжатия : С потерями
Размер потока : 139 Мбайт (3%)
Заголовок : AVO Яроцкий Михаил (kyberpunk)
Язык : Russian
Default : Нет
Forced : Нет

Аудио #7
Идентификатор : 8
Формат : AC-3
Формат/Информация : Audio Coding 3
Расширение режима : CM (complete main)
Параметр Endianness формата : Big
Идентификатор кодека : A_AC3
Продолжительность : 1 ч. 41 м.
Вид битрейта : Постоянный
Битрейт : 224 Кбит/сек
Каналы : 2 канала
Расположение каналов : Front: L R
Частота : 48,0 КГц
Частота кадров : 31,250 кадров/сек (1536 spf)
Битовая глубина : 16 бит
Метод сжатия : С потерями
Размер потока : 162 Мбайт (4%)
Язык : English
Default : Нет
Forced : Нет

Текст
Идентификатор : 9
Формат : UTF-8
Идентификатор кодека : S_TEXT/UTF8
Идентификатор кодека/Информация : UTF-8 Plain Text
Заголовок : SDH
Язык : English
Default : Нет
Forced : Нет


_________________
Проголосуй за трекер Открытый торрент трекер - RUS-MEDIA.ORG

Проголосуй Открытый торрент трекер - RUS-MEDIA.ORG



реклама партнёра


Вернуться к началу
 Профиль Отправить личное сообщение  
 
   Похожие торренты   Автор   Торрент   Размер 
В этой теме нет новых непрочитанных сообщений. Нарушение территории / Trespass [боевик, триллер, 1992] WEBRip 1080p, Dvo+Avo+Sub

salma3

50 | 12

7.69 ГБ

В этой теме нет новых непрочитанных сообщений. Нарушение территории / Trespass [боевик, триллер, 1992] HDTVRip 1080p, Mvo

salma3

58 | 16

8.57 ГБ

В этой теме нет новых непрочитанных сообщений. Нарушение территории / Trespass (Уолтер Хилл) [1992, боевик, триллер, WEB-DLRip] Mvo+Dvo

salma3

80 | 12

1.45 ГБ

В этой теме нет новых непрочитанных сообщений. Корпорация «Бессмертие» / Freejack [Боевик, Фантастика, Приключения, 1992] WEBRip 720p, Dub

salma3

103 | 28

4.97 ГБ

В этой теме нет новых непрочитанных сообщений. Каратель: Территория войны / Punisher: War Zone [боевик, триллер, драма, 2008] BDRip 720p, Mvo

salma3

67 | 17

4.26 ГБ

В этой теме нет новых непрочитанных сообщений. Окончательный анализ / Final Analysis [триллер, драма, 1992] WEBRip 720p, Dub

salma3

12 | 8

7.17 ГБ

В этой теме нет новых непрочитанных сообщений. Афера по-английски / Trespass Against Us [боевик, триллер, драма, криминал, 2016] WEB-DLRip 1080р, Mvo

salma3

684 | 60

3.69 ГБ


Начать новую тему Ответить на тему  [ 1 сообщение ] 




Для Мосгорсуда, Роскомнадзора и рекламодателей:: mosgorsud-torrent[собачка]yandex.ru