Торрент файл
скачать торрент магнет ссылка Добавлен: 05 мар 2017, 11:26
Размер: 7.57 ГБ
Сидеров: 94
Личеров: 13
Статус: (salma3)
Автор

СообщениеДобавлено: 05 мар 2017, 11:26 

В сети
Супермодератор
Аватара пользователя
Дата регистрации:
15 фев 2012, 16:44
Возраст: 28
Спасибо: 6642 / 2146
Сообщения: 45689
Год выхода: 1980
Жанр: комедия
Режиссер: Джим Абрахамс, Дэвид Цукер, Джерри Цукер

В ролях: Роберт Хэйс, Джули Хэгерти, Питер Грейвз, Ллойд Бриджес, Лесли Нильсен, Карим Абдул-Джаббар, Лорна Паттерсон, Роберт Стэк, Стивен Стакер, Отто, Джим Абрахамс, Фрэнк Эшмор, Джонатан Бэнкс, Крэйг Беренсон, Барбара Биллингсли

О фильме:
Роберт Хейс исполняет роль бывшего военного летчика, оказавшегося на борту самолета, экипаж которого из-за пищевого отравления оказался не в состоянии управлять аэробусом.
Хейс вместе со стюардессой вынуждены стать спасителями пестрой компании пассажиров, оказавшихся на грани гибели. Новоявленного пилота и его помощницу ждут немыслимые трудности и невероятные приключения.



Страна: США
Продолжительность: 01:27:42
Перевод #1: Профессиональный (многоголосый закадровый) R5
Перевод #2: Профессиональный (многоголосый закадровый)
Перевод #3: Профессиональный (многоголосый закадровый) Акцент
Перевод #4: Авторский (одноголосый закадровый) А.Гаврилов
Перевод #5: Авторский (одноголосый закадровый) В.Горчаков
Перевод #6: Авторский (одноголосый закадровый) А.Михалев
Перевод #7: Авторский (одноголосый закадровый) Л.Володарский

Файл
Формат: MKV
Видео: 1280x720 at 23.976 fps, x264@L4.1, ~8108 kbps avg
Aудио#1: Russian: 48 kHz, AC3, 2/0 (L,R) ch, ~256 kbps avg |Многоголосый закадровый, R5|
Aудио#2: Russian: 48 kHz, AC3, 3/2 (L,C,R,l,r) + LFE ch, ~448 kbps avg |Многоголосый закадровый|
Aудио#3: Russian: 48 kHz, AC3, 2/0 (L,R) ch, ~192 kbps avg |Многоголосый закадровый, Акцент|
Aудио#4: Russian: 48 kHz, AC3, 3/2 (L,C,R,l,r) + LFE ch, ~448 kbps avg |Одноголосый закадровый, А.Гаврилов|
Aудио#5: Russian: 48 kHz, AC3, 3/2 (L,C,R,l,r) + LFE ch, ~448 kbps avg |Одноголосый закадровый, В.Горчаков|
Aудио#6: Russian: 48 kHz, AC3, 3/2 (L,C,R,l,r) + LFE ch, ~384 kbps avg |Одноголосый закадровый, А.Михалев|
Aудио#7: Russian: 48 kHz, AC3, 2/0 (L,R) ch, ~192.00 kbps avg |Одноголосый закадровый, Л.Володарский|
Aудио#8: English: 48 kHz, DTS, 3/2 (L,C,R,l,r) + LFE ch, ~1510 kbps avg
Субтитры: Английские
за дорожку с Володарским спасибо Прагматик
Релиз от:

General
Unique ID : 240821689004063177008144968528930264051 (0xB52C91F95A83B53DB452BC7E8D3FD3F3)
Complete name : Airplane!.1980.720p.BluRay.x264.HDCLUB.mkv
Format : Matroska
Format version : Version 2
File size : 7.57 GiB
Duration : 1 h 27 min
Overall bit rate : 12.4 Mb/s
Movie name : Airplane! (1980)
Encoded date : UTC 2012-05-10 14:43:15
Writing application : mkvmerge v4.9.1 ('Ich will') сборка от Aug 10 2011 09:31:20
Writing library : libebml v1.2.1 + libmatroska v1.2.0
Video
ID : 1
Format : AVC
Format/Info : Advanced Video Codec
Format profile : High@L4.1
Format settings, CABAC : Yes
Format settings, ReFrames : 8 frames
Codec ID : V_MPEG4/ISO/AVC
Duration : 1 h 27 min
Bit rate : 8 109 kb/s
Width : 1 280 pixels
Height : 720 pixels
Display aspect ratio : 16:9
Frame rate mode : Constant
Frame rate : 23.976 (24000/1001) FPS
Color space : YUV
Chroma subsampling : 4:2:0
Bit depth : 8 bits
Scan type : Progressive
Bits/(Pixel*Frame) : 0.367
Stream size : 4.97 GiB (66%)
Writing library : x264 core 120 r2164 da19765
Encoding settings : cabac=1 / ref=8 / deblock=1:-2:-2 / analyse=0x3:0x133 / me=esa / subme=9 / psy=1 / psy_rd=1.10:0.05 / mixed_ref=1 / me_range=32 / chroma_me=1 / trellis=2 / 8x8dct=1 / cqm=0 / deadzone=21,11 / fast_pskip=1 / chroma_qp_offset=-3 / threads=12 / sliced_threads=0 / nr=0 / decimate=1 / interlaced=0 / bluray_compat=0 / constrained_intra=0 / bframes=6 / b_pyramid=2 / b_adapt=2 / b_bias=0 / direct=3 / weightb=1 / open_gop=0 / weightp=2 / keyint=240 / keyint_min=23 / scenecut=40 / intra_refresh=0 / rc_lookahead=60 / rc=crf / mbtree=1 / crf=18.0 / qcomp=0.60 / qpmin=0 / qpmax=69 / qpstep=4 / ip_ratio=1.40 / aq=2:0.80
Language : English
Default : No
Forced : No
Audio #1
ID : 2
Format : AC-3
Format/Info : Audio Coding 3
Mode extension : CM (complete main)
Format settings, Endianness : Big
Codec ID : A_AC3
Duration : 1 h 27 min
Bit rate mode : Constant
Bit rate : 256 kb/s
Channel(s) : 2 channels
Channel positions : Front: L R
Sampling rate : 48.0 kHz
Frame rate : 31.250 FPS (1536 spf)
Bit depth : 16 bits
Compression mode : Lossy
Stream size : 161 MiB (2%)
Title : Многоголосый закадровый, R5
Language : Russian
Default : Yes
Forced : No
Audio #2
ID : 3
Format : AC-3
Format/Info : Audio Coding 3
Mode extension : CM (complete main)
Format settings, Endianness : Big
Codec ID : A_AC3
Duration : 1 h 27 min
Bit rate mode : Constant
Bit rate : 448 kb/s
Channel(s) : 6 channels
Channel positions : Front: L C R, Side: L R, LFE
Sampling rate : 48.0 kHz
Frame rate : 31.250 FPS (1536 spf)
Bit depth : 16 bits
Compression mode : Lossy
Stream size : 281 MiB (4%)
Title : Многоголосый закадровый
Language : Russian
Default : No
Forced : No
Audio #3
ID : 4
Format : AC-3
Format/Info : Audio Coding 3
Mode extension : CM (complete main)
Format settings, Endianness : Big
Codec ID : A_AC3
Duration : 1 h 27 min
Bit rate mode : Constant
Bit rate : 192 kb/s
Channel(s) : 2 channels
Channel positions : Front: L R
Sampling rate : 48.0 kHz
Frame rate : 31.250 FPS (1536 spf)
Bit depth : 16 bits
Compression mode : Lossy
Stream size : 120 MiB (2%)
Title : Многоголосый закадровый, Акцент
Language : Russian
Default : No
Forced : No
Audio #4
ID : 5
Format : AC-3
Format/Info : Audio Coding 3
Mode extension : CM (complete main)
Format settings, Endianness : Big
Codec ID : A_AC3
Duration : 1 h 27 min
Bit rate mode : Constant
Bit rate : 448 kb/s
Channel(s) : 6 channels
Channel positions : Front: L C R, Side: L R, LFE
Sampling rate : 48.0 kHz
Frame rate : 31.250 FPS (1536 spf)
Bit depth : 16 bits
Compression mode : Lossy
Stream size : 281 MiB (4%)
Title : Одноголосый закадровый, А.Гаврилов
Language : Russian
Default : No
Forced : No
Audio #5
ID : 6
Format : AC-3
Format/Info : Audio Coding 3
Mode extension : CM (complete main)
Format settings, Endianness : Big
Codec ID : A_AC3
Duration : 1 h 27 min
Bit rate mode : Constant
Bit rate : 448 kb/s
Channel(s) : 6 channels
Channel positions : Front: L C R, Side: L R, LFE
Sampling rate : 48.0 kHz
Frame rate : 31.250 FPS (1536 spf)
Bit depth : 16 bits
Compression mode : Lossy
Stream size : 281 MiB (4%)
Title : Одноголосый закадровый, В.Горчаков
Language : Russian
Default : No
Forced : No
Audio #6
ID : 7
Format : AC-3
Format/Info : Audio Coding 3
Mode extension : CM (complete main)
Format settings, Endianness : Big
Codec ID : A_AC3
Duration : 1 h 27 min
Bit rate mode : Constant
Bit rate : 384 kb/s
Channel(s) : 6 channels
Channel positions : Front: L C R, Side: L R, LFE
Sampling rate : 48.0 kHz
Frame rate : 31.250 FPS (1536 spf)
Bit depth : 16 bits
Compression mode : Lossy
Stream size : 241 MiB (3%)
Title : Одноголосый закадровый, А.Михалев
Language : Russian
Default : No
Forced : No
Audio #7
ID : 8
Format : AC-3
Format/Info : Audio Coding 3
Mode extension : CM (complete main)
Format settings, Endianness : Big
Codec ID : A_AC3
Duration : 1 h 27 min
Bit rate mode : Constant
Bit rate : 320 kb/s
Channel(s) : 2 channels
Channel positions : Front: L R
Sampling rate : 48.0 kHz
Frame rate : 31.250 FPS (1536 spf)
Bit depth : 16 bits
Compression mode : Lossy
Stream size : 201 MiB (3%)
Title : Авторский (одноголосый закадровый) |Л.Володарский|
Language : Russian
Default : No
Forced : No
Audio #8
ID : 9
Format : DTS
Format/Info : Digital Theater Systems
Mode : 16
Format settings, Endianness : Big
Codec ID : A_DTS
Duration : 1 h 27 min
Bit rate mode : Constant
Bit rate : 1 509 kb/s
Channel(s) : 6 channels
Channel positions : Front: L C R, Side: L R, LFE
Sampling rate : 48.0 kHz
Frame rate : 93.750 FPS (512 spf)
Bit depth : 24 bits
Compression mode : Lossy
Delay relative to video : 11 ms
Stream size : 947 MiB (12%)
Language : English
Default : No
Forced : No
Text
ID : 10
Format : UTF-8
Codec ID : S_TEXT/UTF8
Codec ID/Info : UTF-8 Plain Text
Language : English
Default : No
Forced : No
Menu
00:00:00.000 : en:00:00:00.000
00:04:28.852 : en:00:04:28.852
00:07:04.549 : en:00:07:04.549
00:10:38.888 : en:00:10:38.888
00:13:21.217 : en:00:13:21.217
00:15:47.655 : en:00:15:47.655
00:21:42.092 : en:00:21:42.092
00:24:50.572 : en:00:24:50.572
00:27:06.917 : en:00:27:06.917
00:30:44.551 : en:00:30:44.551
00:33:14.618 : en:00:33:14.618
00:35:52.442 : en:00:35:52.442
00:40:43.107 : en:00:40:43.107
00:45:48.537 : en:00:45:48.537
00:48:38.374 : en:00:48:38.374
00:51:12.278 : en:00:51:12.278
00:54:08.120 : en:00:54:08.120
00:56:17.040 : en:00:56:17.040
00:58:42.894 : en:00:58:42.894
01:01:59.883 : en:01:01:59.883
01:06:47.545 : en:01:06:47.545
01:10:38.568 : en:01:10:38.568
01:12:17.124 : en:01:12:17.124
01:15:28.566 : en:01:15:28.566
01:19:57.668 : en:01:19:57.668
01:23:02.519 : en:01:23:02.519



_________________
Проголосуй за трекер Открытый торрент трекер - RUS-MEDIA.ORG

Проголосуй Открытый торрент трекер - RUS-MEDIA.ORG



реклама партнёра


Вернуться к началу
 Профиль Отправить личное сообщение  
 
   Похожие торренты   Автор   Торрент   Размер 
В этой теме нет новых непрочитанных сообщений. Это не я, это - он! / C'est pas moi, c'est lui [комедия, 1980] BDRip 720p, Mvo

salma3

48 | 15

4.07 ГБ

В этой теме нет новых непрочитанных сообщений. Игра в классики / Hopscotch [комедия, приключения, 1980] BDRip 720p, Avo

salma3

20 | 2

7.31 ГБ

В этой теме нет новых непрочитанных сообщений. Драка в Бэттл Крик / Battle Creek Brawl [боевик, комедия, криминал, 1980] BDRip 720p, Mvo+Dvo+Avo+Sub

salma3

65 | 41

7.66 ГБ

В этой теме нет новых непрочитанных сообщений. Трюкач / The Stunt Man [боевик, триллер, драма, 1980] BDRip 720p, Dub

salma3

60 | 41

9.63 ГБ

В этой теме нет новых непрочитанных сообщений. Трюкач / The Stunt Man [боевик, триллер, драма, 1980] BDRip 720p, Dub

salma3

39 | 12

5.76 ГБ

В этой теме нет новых непрочитанных сообщений. [LegalPorno.com] Monstars of DAP with Lara De Santis No Pussy Balls Deep DAP TAP Airplane Gapes GIO424 / 30.07.2017 [DP, Gangbang, Anal, Gape, DAP, TAP, Big tits, Interracial, MILF, 720p]

salma3

9 | 3

1.55 ГБ

В этой теме нет новых непрочитанных сообщений. Шагающий по ветру / Windwalker [вестерн, драма, приключения, 1980] BDRip 720p, Avo+Sub

salma3

107 | 34

4.35 ГБ


Начать новую тему Ответить на тему  [ 1 сообщение ] 




Для Мосгорсуда, Роскомнадзора и рекламодателей:: mosgorsud-torrent[собачка]yandex.ru