Торрент файл
скачать торрент магнет ссылка Добавлен: 04 мар 2017, 15:01
Размер: 4.91 ГБ
Сидеров: 90
Личеров: 28
Статус: (salma3)
Автор

СообщениеДобавлено: 04 мар 2017, 15:01 

Не в сети
Супермодератор
Аватара пользователя
Дата регистрации:
15 фев 2012, 16:44
Возраст: 29
Спасибо: 7377 / 2147
Сообщения: 75888
Год выхода: 1997
Жанр: боевик, триллер, комедия
Режиссер: Джон Эмиел

В ролях: Билл Мюррей, Питер Галлахер, Джоэнн Уэлли, Альфред Молина, Ричард Уилсон, Джон Стэндинг, Саймон Чэндлер, Джеральдин Джеймс, Анна Чэнселлор, Николас Вудесон

О фильме:
Приехавшего в Лондон Уоллеса Ричи принимают не за того, кто он есть на самом деле. Случайно он получает секретные инструкции и становится крутым суперагентом, сам того не подозревая.

Ричи простой и наивный парень, он с трудом выговаривает сложные слова и вряд ли так хорош, как кажется, но… он весело решает все проблемы, особенно не задумываясь над ними. Стрельба, погони, нокауты и бомбы с часовым механизмом — это только начало. Начало жизни шпиона!



Страна: США, Германия
Продолжительность: 01:33:43
Перевод: Профессиональный (дублированный) Варус Видео + Профессиональный (двухголосый, закадровый) HTB+ + Авторский (одноголосый, закадровый) А.Гаврилов

Файл
Формат: Matroska
Качество: BDRip 720p
Видео: 1280x720 at 23.976 fps, x264@L4.1, ~6325 kbps avg
Аудио#1: Russian: 48 kHz, AC3, 2/0 (L,R) ch, ~192 kbps avg |Дубляж, Варус Видео|
Аудио#2: Russian: 48 kHz, AC3, 2/0 (L,R) ch, ~192 kbps avg |Двухголосый закадровый, HTB+|
Аудио#3: Russian: 48 kHz, AC3, 2/0 (L,R) ch, ~192 kbps avg |Авторский, А.Гаврилов|
Аудио#4: English: 48 kHz, AC3, 3/2 (L,C,R,l,r) + LFE ch, ~448 kbps avg
Субтитры: Russian, English (SDH)

***Сохранены оригинальные главы как на Blu-ray.
***Релиз - msltel.

Общее
Уникальный идентификатор : 216506140265153567893444784035232987405 (0xA2E190DCBA4575399C14DF189307B90D)
Полное имя : Человек, который слишком мало знал.1997.BDRip.720p.mkv
Формат : Matroska
Версия формата : Version 4 / Version 2
Размер файла : 4,91 Гбайт
Продолжительность : 1 ч. 33 м.
Общий поток : 7498 Кбит/сек
Название фильма : Rip by msltel
Дата кодирования : UTC 2017-03-04 08:22:22
Программа кодирования : mkvmerge v8.2.0 ('World of Adventure') 64bit
Библиотека кодирования : libebml v1.3.1 + libmatroska v1.4.2

Видео
Идентификатор : 1
Формат : AVC
Формат/Информация : Advanced Video Codec
Профиль формата : High@L4.1
Параметр CABAC формата : Да
Параметр ReFrames формата : 9 кадров
Идентификатор кодека : V_MPEG4/ISO/AVC
Продолжительность : 1 ч. 33 м.
Битрейт : 6325 Кбит/сек
Ширина : 1280 пикселей
Высота : 720 пикселей
Соотношение сторон : 16:9
Режим частоты кадров : Постоянный
Частота кадров : 23,976 кадра/сек
Цветовое пространство : YUV
Субдискретизация насыщенности : 4:2:0
Битовая глубина : 8 бит
Тип развёртки : Прогрессивная
Бит/(Пиксели*Кадры) : 0.286
Размер потока : 4,14 Гбайт (84%)
Библиотека кодирования : x264 core 146 r2538 121396c
Настройки программы : cabac=1 / ref=9 / deblock=1:-3:-2 / analyse=0x3:0x113 / me=umh / subme=11 / psy=1 / psy_rd=1.00:0.15 / mixed_ref=1 / me_range=32 / chroma_me=1 / trellis=2 / 8x8dct=1 / cqm=0 / deadzone=21,11 / fast_pskip=0 / chroma_qp_offset=-3 / threads=6 / lookahead_threads=1 / sliced_threads=0 / nr=0 / decimate=1 / interlaced=0 / bluray_compat=0 / constrained_intra=0 / bframes=8 / b_pyramid=2 / b_adapt=2 / b_bias=0 / direct=1 / weightb=1 / open_gop=0 / weightp=2 / keyint=230 / keyint_min=23 / scenecut=40 / intra_refresh=0 / rc_lookahead=40 / rc=crf / mbtree=0 / crf=18.5 / qcomp=0.60 / qpmin=0 / qpmax=69 / qpstep=4 / vbv_maxrate=62500 / vbv_bufsize=78125 / crf_max=0.0 / nal_hrd=none / filler=0 / ip_ratio=1.40 / pb_ratio=1.30 / aq=1:1.00
Язык : English
Default : Да
Forced : Нет

Аудио #1
Идентификатор : 2
Формат : AC-3
Формат/Информация : Audio Coding 3
Расширение режима : CM (complete main)
Параметр Endianness формата : Big
Идентификатор кодека : A_AC3
Продолжительность : 1 ч. 33 м.
Вид битрейта : Постоянный
Битрейт : 192 Кбит/сек
Каналы : 2 канала
Расположение каналов : Front: L R
Частота : 48,0 КГц
Битовая глубина : 16 бит
Метод сжатия : С потерями
Размер потока : 129 Мбайт (3%)
Заголовок : DUB (Варус Видео)
Язык : Russian
Default : Да
Forced : Нет

Аудио #2
Идентификатор : 3
Формат : AC-3
Формат/Информация : Audio Coding 3
Расширение режима : CM (complete main)
Параметр Endianness формата : Big
Идентификатор кодека : A_AC3
Продолжительность : 1 ч. 33 м.
Вид битрейта : Постоянный
Битрейт : 192 Кбит/сек
Каналы : 2 канала
Расположение каналов : Front: L R
Частота : 48,0 КГц
Битовая глубина : 16 бит
Метод сжатия : С потерями
Размер потока : 129 Мбайт (3%)
Заголовок : DVO (HTB+)
Язык : Russian
Default : Нет
Forced : Нет

Аудио #3
Идентификатор : 4
Формат : AC-3
Формат/Информация : Audio Coding 3
Расширение режима : CM (complete main)
Параметр Endianness формата : Big
Идентификатор кодека : A_AC3
Продолжительность : 1 ч. 33 м.
Вид битрейта : Постоянный
Битрейт : 192 Кбит/сек
Каналы : 2 канала
Расположение каналов : Front: L R
Частота : 48,0 КГц
Битовая глубина : 16 бит
Метод сжатия : С потерями
Размер потока : 129 Мбайт (3%)
Заголовок : AVO (Андрей Гаврилов)
Язык : Russian
Default : Нет
Forced : Нет

Аудио #4
Идентификатор : 5
Формат : AC-3
Формат/Информация : Audio Coding 3
Расширение режима : CM (complete main)
Параметр Endianness формата : Big
Идентификатор кодека : A_AC3
Продолжительность : 1 ч. 33 м.
Вид битрейта : Постоянный
Битрейт : 448 Кбит/сек
Каналы : 6 каналов
Расположение каналов : Front: L C R, Side: L R, LFE
Частота : 48,0 КГц
Битовая глубина : 16 бит
Метод сжатия : С потерями
Размер потока : 300 Мбайт (6%)
Заголовок : original
Язык : English
Default : Нет
Forced : Нет

Текст #1
Идентификатор : 6
Формат : UTF-8
Идентификатор кодека : S_TEXT/UTF8
Идентификатор кодека/Информация : UTF-8 Plain Text
Заголовок : русские
Язык : Russian
Default : Нет
Forced : Нет

Текст #2
Идентификатор : 7
Формат : UTF-8
Идентификатор кодека : S_TEXT/UTF8
Идентификатор кодека/Информация : UTF-8 Plain Text
Заголовок : английские (для слабослышащих)
Язык : English
Default : Нет
Forced : Нет

Меню
00:00:00.000 : :Chapter 01
00:09:12.927 : :Chapter 02
00:19:25.080 : :Chapter 03
00:30:38.962 : :Chapter 04
00:40:01.273 : :Chapter 05
00:50:57.220 : :Chapter 06
00:59:58.428 : :Chapter 07
01:09:34.003 : :Chapter 08
01:19:44.112 : :Chapter 09
01:33:41.824 : :Chapter 10


_________________
Проголосуй за трекер Открытый торрент трекер - RUS-MEDIA.ORG

Проголосуй Открытый торрент трекер - RUS-MEDIA.ORG


Вернуться к началу
 Профиль Отправить личное сообщение  
 
   Похожие торренты   Автор   Торрент   Размер 
В этой теме нет новых непрочитанных сообщений. Человек, который слишком много знал / The Man Who Knew Too Much [триллер, драма, 1956] BDRip, Mvo

salma3

0 | 1

2.08 ГБ

В этой теме нет новых непрочитанных сообщений. Человек, который познал бесконечность / The Man Who Knew Infinity [Драма, биография, 2015] BDRip 720p, Dub [iTunes]

salma3

790 | 312

4.33 ГБ

В этой теме нет новых непрочитанных сообщений. Человек, который познал бесконечность / The Man Who Knew Infinity [драма, биография, 2015] BDRip, Dub [iTunes]

salma3

44 | 21

1.41 ГБ

В этой теме нет новых непрочитанных сообщений. Человек, который познал бесконечность / The Man Who Knew Infinity [Драма, биография, 2015] BDRip, Dub [iTunes]

salma3

1204 | 355

1.41 ГБ

В этой теме нет новых непрочитанных сообщений. Совсем мало времени 2 / Am zin 2 [боевик, криминал, 2001] BDRip 720p, Avo

salma3

0 | 3

4.75 ГБ

В этой теме нет новых непрочитанных сообщений. Совсем мало времени / Am zin [боевик, триллер, драма, криминал, 1999] BDRip 1080p, Avo

salma3

0 | 2

11.87 ГБ

В этой теме нет новых непрочитанных сообщений. Слишком серьёзная игра / Out of Bounds [Боевик, триллер, драма, 1986] WEB-DL 720p, Avo

salma3

0 | 0

2.88 ГБ


Начать новую тему Ответить на тему  [ 1 сообщение ] 




Для Мосгорсуда, Роскомнадзора и рекламодателей:: mosgorsud-torrent[собачка]yandex.ru
cron